Достать ножи: Стеклянная луковица

MVO

Добыча

Дубляж

Уэнсдэй

1 сезон

Тор

Дубляж

13 клиническая

1 сезон

Жестокая ночь

MVO

Одни из нас

1 сезон

Deluxe

pack

Рекомендуем

30

Пиратка

ВАЖНО

ВАЖНО

Ghostwire

Пиратка

jed

RePack

nioh2

RePack

RDR2

RePack

NEED FOR SPEED™ PAYBACK

RePack

скачать торрент

Кинопоиск HD

Острые козырьки 6 сезон

6 сезон

FAR CRY 6

RePack

скачать торрент

Лицензия

скачать торрент

MVO

1

1 сезон

скачать торрент

1 сезон

скачать торрент

Лицензия

  

Цельнометаллическая оболочка / Full Metal Jacket (Стэнли Кубрик) [1987, Драма, военный, UHD BDRemux 2160p] MVO (rus, ukr) +3xAVO

Цельнометаллическая оболочка через торрент piratbit.org

Размер: 58.87 GB | Добавлен: 2 года 4 мес. назад | Торрент скачан:99 раз
Смотреть онлайн | Скачать | Поддержите нас   

21-09-2020 02:38 Цельнометаллическая оболочка Скачать торрент  

Цельнометаллическая оболочка | Full Metal Jacket
Год выпуска: 1987
Страна: США, Великобритания
Студия: Warner Bros. Pictures Co., Natant, Stanley Kubrick Productions
Жанр: Драма, военный
Продолжительность: 01:56:33
Перевод(ы):
#1: Профессиональный многоголосый | Лицензия (R5)
#2: Авторский | Дмитрий "Гоблин" Пучков
#3: Авторский | Леонид Володарский
#4: Авторский | Алексей Багичев
Субтитры: Русские (2 x full), английские

Режиссер: Стэнли Кубрик

rating

В ролях: Мэттью Модайн, Адам Болдуин, Винсент Д`Онофрио, Р. Ли Эрми, Дориан Хэрвуд, Кевин Мэйджор Хауард, Арлисс Хауард, Эд О`Росс, Джон Терри, Кирон Джеккинис, Кирк Тейлор, Тим Колсери, Джон Стэффорд, Брюс Боа, Иэн Тайлер, Сэл Лопес, Гари Лэндон Миллс, Папильон Су, Питер Эдмунд, Нгок Ле, Лиэнн Хонг, Тан Хунг Франсион, Маркус Д’Амико, Костас Дино Чимона, Джил Копел, Кейт Ходиак, Питер Мэрилл, Херберт Норвилл, Нгуен Хуэ Фонг, Дюк Ху Та, Мартин Адамс, Кевин Албридж, Дел Андерсон

Описание: Американская база подготовки новобранцев корпуса морской пехоты. Жесточайшая, бесчеловечная система призвана превратить домашних мальчишек в натренированных хладнокровных убийц. Их готовят к войне во Вьетнаме, где им придется часто задавать себе вопрос «Разве война — это не ад?», а иначе просто невозможно убивать каждый день, не понимая, для чего это?

Качество: UHD BDRemux 2160p
Формат: MKV

Видео: 3840x2160 at 23.976 fps, MPEG-H HEVC HDR Video, 62700 kbps avg
Аудио #01: 48 kHz, AC3, 5.1, 448 Kbps | Лицензия | RUS |
Аудио #02: 48 kHz, DTS-HD MA, 5.1, 2222 Kbps | Дмитрий Пучков | RUS |
Аудио #03: 48 kHz, DTS-HD MA, 5.1, 2224 Kbps | Леонид Володарский | RUS |
Аудио #04: 48 kHz, DTS-HD MA, 5.1, 2223 Kbps | Алексей Багичев | RUS |
Аудио #05: 48 kHz, AC3, 2.0, 192 Kbps | ICTV | UKR |
Аудио #06: 48 kHz, DTS-HD MA, 5.1, 2297 Kbps | Оригинал | ENG |
скриншот  скриншот  скриншот  скриншот  скриншот  

General
Unique ID : 70805866559007704943665380659794559630 (0x3544B6BFD1B3EE65A3C7FED59BD4428E)
Complete name : D:Video111Full.Metal.Jacket.1987.BDREMUX.2160p.HDR.seleZen.mkv
Format : Matroska
Format version : Version 4
File size : 58.9 GiB
Duration : 1 h 56 min
Overall bit rate mode : Variable
Overall bit rate : 72.2 Mb/s
Movie name : Full Metal Jacket 1987 4K UHD from селезень
Encoded date : UTC 2020-09-21 01:25:20
Writing application : mkvmerge v40.0.0 ('Old Town Road + Pony') 64-bit
Writing library : libebml v1.3.9 + libmatroska v1.5.2

Video
ID : 1
Format : HEVC
Format/Info : High Efficiency Video Coding
Format profile : Main 10@L5.1@High
HDR format : SMPTE ST 2086, HDR10 compatible
Codec ID : V_MPEGH/ISO/HEVC
Duration : 1 h 56 min
Bit rate : 62.7 Mb/s
Width : 3 840 pixels
Height : 2 160 pixels
Display aspect ratio : 16:9
Frame rate mode : Constant
Frame rate : 23.976 (24000/1001) FPS
Color space : YUV
Chroma subsampling : 4:2:0 (Type 2)
Bit depth : 10 bits
Bits/(Pixel*Frame) : 0.315
Stream size : 51.0 GiB (87%)
Writing library : ATEME Titan File 3.9.6 (4.9.6.2)
Language : English
Default : Yes
Forced : No
Color range : Limited
Color primaries : BT.2020
Transfer characteristics : PQ
Matrix coefficients : BT.2020 non-constant
Mastering display color pri: Display P3
Mastering display luminance: min: 0.0050 cd/m2, max: 4000 cd/m2
Maximum Content Light Level: 1246 cd/m2
Maximum Frame-Average Light: 159 cd/m2

Audio #1
ID : 2
Format : AC-3
Format/Info : Audio Coding 3
Commercial name : Dolby Digital
Codec ID : A_AC3
Duration : 1 h 56 min
Bit rate mode : Constant
Bit rate : 448 kb/s
Channel(s) : 6 channels
Channel layout : L R C LFE Ls Rs
Sampling rate : 48.0 kHz
Frame rate : 31.250 FPS (1536 SPF)
Compression mode : Lossy
Stream size : 374 MiB (1%)
Title : MVO [R5]
Language : Russian
Service kind : Complete Main
Default : Yes
Forced : Yes

Audio #2
ID : 3
Format : DTS XLL
Format/Info : Digital Theater Systems
Commercial name : DTS-HD Master Audio
Codec ID : A_DTS
Duration : 1 h 56 min
Bit rate mode : Variable
Bit rate : 2 222 kb/s
Channel(s) : 6 channels
Channel layout : C L R Ls Rs LFE
Sampling rate : 48.0 kHz
Frame rate : 93.750 FPS (512 SPF)
Bit depth : 16 bits
Compression mode : Lossless
Stream size : 1.81 GiB (3%)
Title : AVO [Goblin]
Language : Russian
Default : No
Forced : No

Audio #3
ID : 4
Format : DTS XLL
Format/Info : Digital Theater Systems
Commercial name : DTS-HD Master Audio
Codec ID : A_DTS
Duration : 1 h 56 min
Bit rate mode : Variable
Bit rate : 2 224 kb/s
Channel(s) : 6 channels
Channel layout : C L R Ls Rs LFE
Sampling rate : 48.0 kHz
Frame rate : 93.750 FPS (512 SPF)
Bit depth : 16 bits
Compression mode : Lossless
Stream size : 1.81 GiB (3%)
Title : AVO [Volodarskiy]
Language : Russian
Default : No
Forced : No

Audio #4
ID : 5
Format : DTS XLL
Format/Info : Digital Theater Systems
Commercial name : DTS-HD Master Audio
Codec ID : A_DTS
Duration : 1 h 56 min
Bit rate mode : Variable
Bit rate : 2 223 kb/s
Channel(s) : 6 channels
Channel layout : C L R Ls Rs LFE
Sampling rate : 48.0 kHz
Frame rate : 93.750 FPS (512 SPF)
Bit depth : 16 bits
Compression mode : Lossless
Stream size : 1.81 GiB (3%)
Title : AVO [Bagichev]
Language : Russian
Default : No
Forced : No

Audio #5
ID : 6
Format : AC-3
Format/Info : Audio Coding 3
Commercial name : Dolby Digital
Codec ID : A_AC3
Duration : 1 h 56 min
Bit rate mode : Constant
Bit rate : 192 kb/s
Channel(s) : 2 channels
Channel layout : L R
Sampling rate : 48.0 kHz
Frame rate : 31.250 FPS (1536 SPF)
Compression mode : Lossy
Stream size : 160 MiB (0%)
Title : MVO [ICTV]
Language : Ukrainian
Service kind : Complete Main
Default : No
Forced : No

Audio #6
ID : 7
Format : DTS XLL
Format/Info : Digital Theater Systems
Commercial name : DTS-HD Master Audio
Codec ID : A_DTS
Duration : 1 h 56 min
Bit rate mode : Variable
Bit rate : 2 297 kb/s
Channel(s) : 6 channels
Channel layout : C L R Ls Rs LFE
Sampling rate : 48.0 kHz
Frame rate : 93.750 FPS (512 SPF)
Bit depth : 16 bits
Compression mode : Lossless
Stream size : 1.87 GiB (3%)
Title : Original
Language : English
Default : No
Forced : No

Text #1
ID : 8
Format : UTF-8
Codec ID : S_TEXT/UTF8
Codec ID/Info : UTF-8 Plain Text
Duration : 1 h 52 min
Bit rate : 81 b/s
Count of elements : 1167
Stream size : 66.7 KiB (0%)
Title : Full [R5]
Language : Russian
Default : No
Forced : No

Text #2
ID : 9
Format : UTF-8
Codec ID : S_TEXT/UTF8
Codec ID/Info : UTF-8 Plain Text
Duration : 1 h 52 min
Bit rate : 90 b/s
Count of elements : 1326
Stream size : 74.3 KiB (0%)
Title : Full [Goblin]
Language : Russian
Default : No
Forced : No

Text #3
ID : 10
Format : UTF-8
Codec ID : S_TEXT/UTF8
Codec ID/Info : UTF-8 Plain Text
Duration : 1 h 50 min
Bit rate : 59 b/s
Count of elements : 1385
Stream size : 48.7 KiB (0%)
Title : Full
Language : English
Default : No
Forced : No

Text #4
ID : 11
Format : UTF-8
Codec ID : S_TEXT/UTF8
Codec ID/Info : UTF-8 Plain Text
Duration : 1 h 50 min
Bit rate : 61 b/s
Count of elements : 1418
Stream size : 50.4 KiB (0%)
Title : SDH
Language : English
Default : No
Forced : No

Menu
00:00:00.000 : en:Haircut Montage
00:01:36.930 : en:Sgt. Hartman Names His Maggots
00:07:34.579 : en:Drill
00:10:01.100 : en:"This Is My Rifle"
00:13:21.175 : en:Obstacle Course
00:17:41.018 : en:Joker's Got Guts
00:19:42.515 : en:Helping Pyle
00:23:49.970 : en:The Jelly Donut
00:28:10.772 : en:Night Attack
00:30:17.649 : en:Motivated Marines
00:32:27.070 : en:God And The Corps
00:33:54.491 : en:Pyle And His Rifle
00:38:21.841 : en:Graduation
00:40:03.067 : en:Full Metal Jacket
00:42:57.742 : en:Pyle's Major Malfunction
00:45:29.393 : en:Vietnam
00:47:52.286 : en:The Stories We Write
00:52:02.453 : en:Base Under Attack
00:56:36.518 : en:No Ann-Margret?
00:58:37.556 : en:Trigger Happy
01:01:33.940 : en:What The Dead Know
01:03:43.778 : en:The Word Of God
01:05:53.950 : en:Reunion With Cowboy
01:09:02.847 : en:Guest Of Honor
01:10:27.598 : en:Approaching Hue City
01:12:22.380 : en:First Strike
01:15:38.367 : en:Vietnam: The Movie
01:17:50.791 : en:Words Over The Dead
01:19:49.451 : en:Interview Subjects
01:23:00.058 : en:Negotiations
01:25:33.712 : en:New Squad Leader
01:28:27.469 : en:The Sniper
01:30:55.075 : en:Two Men Down
01:35:43.613 : en:Animal Mother's Charge
01:38:47.338 : en:Cowboy's End
01:41:46.183 : en:Getting The Sniper
01:45:13.140 : en:"Shoot Me"
01:51:08.245 : en:Alive And Not Afraid
01:52:57.646 : en:End Credits




Скачать Цельнометаллическая оболочка через торрент https://i109.fastpic.ru/big/2019/0322/41/0c948b49e38633e31b89a77f97ebc241.png Скачать, смотреть онлайн Цельнометаллическая оболочка бесплантно в хорошем качестве Описание: Американская база подготовки новобранцев корпуса морской пехоты. Жесточайшая, бесчеловечная система призвана превратить домашних ... 9.1 10 7
Торрент: Зарегистрирован [2020-09-21 02:38] · скачан: 99 раз
Статус: √ проверено
Размер: 58.87 GB
Как cкачать? Как скачать Цельнометаллическая оболочка через торрент | UTorrent

28-11-2019 20:33  


Отключить вcю реклaмy на сайте, в т.ч. и в плеере онлайн просмотра!

    Дорогой пользователь! Огромная просьба, поблагодарите релизера, оцените раздачу и оставьте свои комментарий, если Вы скачали Цельнометаллическая оболочка через торрент бесплатно!!
    Комментировать посты могут только пользователи прошедшие не сложную регистрацию
    Показать сообщения:    


    Цельнометаллическая оболочка через торрент
    Скачать бесплатно Цельнометаллическая оболочка
    Цельнометаллическая оболочка скачать торрент
    Цельнометаллическая оболочка смотреть онлайн
    Cкачать фильм Цельнометаллическая оболочка бесплатно
    Цельнометаллическая оболочка скачать торрент в хорошем качестве
    Цельнометаллическая оболочка смотреть онлайн бесплатно в хорошем качестве
    Вы не можете начинать темы
    Вы не можете отвечать на сообщения
    Вы не можете редактировать свои сообщения
    Вы не можете удалять свои сообщения
    Вы не можете голосовать в опросах
    Вы не можете прикреплять файлы к сообщениям
    Вы можете скачивать файлы
    Цельнометаллическая оболочка / Full Metal Jacket [1987, Драма, военный, UHD BDRemux 2160p] MVO +3xAVO смотреть онлайн, скачать торрент picoco.icu