1 сезон

3 сезон

iTunes

1

iTunes

DUB Netflix

iTunes

13

1 сезон

RePack

30

Deluxe

pack

Легкие деньги

ВАЖНО

ИГРА 18+

pack

RePack

MK11

RePack

jed

RePack

fifa19

RePack

RDR2

RePack

NEED FOR SPEED™ PAYBACK

4 сезон

9 сезон

Бесстыжие 9 сезон

Все сериалы

все сериалы на PB.wtf

RePack

FAR CRY 5

Anonymous, доброй ночи, мы не успеваем до 1 числа собрать деньги на оплату серверов, помогите нам пожалуйста в это трудное время. В качестве благодарности мы отключим Вам всю рекламу на сайте (укажите свой ник в строку Ваше имя)!

×
  
Magnet ссылка

Взрыв / Сезон: 1 / Серии: 1-16 из 16 (Андрей Мармонтов) [2018, Драма, криминал, WEBRip 1080p, (Версия 18+)] piratbit.org

Взрыв через торрент piratbit.org

Размер: 25.92 GB | Добавлен: 7 мес. назад | Торрент скачан:80 раз
Скачать  

24-09-2020 07:31 Взрыв Скачать торрент  

Взрыв
Год выпуска: 2018
Страна: Россия
Выпущено: LEGIO FELIX по заказу телеканала НТВ
Жанр: Драма, криминал
Продолжительность: ~ 00:48:00
Перевод: Не требуется Русский
Субтитры: отсутствуют
Версия 18+. Внимание! Присутствует ненормативная лексика.

Режиссер: Андрей Мармонтов



В ролях: Дмитрий Чеботарёв, Нина Гогаева, Владислав Павлов, Екатерина Симаходская, Сергей Жарков, Алёна Ковалёва, Егор Клинаев, Алина Бабак, Алексей Лукин, Алексей Матошин, Артём Ешкин, Мария Ульянова, Анна Шкиль, Александр Сергеев (IV), Иван Куколев, Надежда Иванко

Описание: Москва. Наши дни. Простой, знакомый всем спальный район. Подъезд самой обыкновенной пятиэтажки. Некоторые из жильцов знакомы друг с другом, другие просто здороваются при встрече, а кто-то даже и не запоминает лиц своих соседей. Неожиданно все они становятся объединены ужасной трагедией: их подъезд взрывается, превращаясь в кучу дымящихся обломков. В один миг эти люди теряют всё: близких и родственников, крышу над головой, имущество. Одиночество, безысходность, пороки современного общества начинают затягивать их в свои сети. Смогут ли они противостоять этому и начать новую жизнь или так и сгниют на дне? А главное – разобраться в истинных причинах случившегося.

Качество: WEBRip 1080p
Формат: MKV

Видео: MPEG-4 AVC, ~ 4500 Кбит/с, 1920x1040
Аудио: 48.0 kHz, AC3 Dolby Digital, 2/0 (L,R) ch, ~ 192 kbps
скриншот  скриншот  скриншот  скриншот  скриншот  

Общее
Уникальный идентификатор : 185628277377568533138615641336522226384 (0x8BA6B4AED3B4780C95F6BAD7837C3AD0)
Полное имя : E:\Vzryv.2018.WEB-DL.(1080p).Getty\Vzryv.e01.2018.WEB-DL.(1080p).Getty.mkv
Формат : Matroska
Версия формата : Version 4
Размер файла : 1,59 Гбайт
Продолжительность : 48 м. 51 с.
Режим общего битрейта : Переменный
Общий поток : 4 662 Кбит/сек
Название фильма : Vzryv.e01.2018.WEB-DL.(1080p).Getty
Дата кодирования : UTC 2020-09-24 07:06:33
Программа кодирования : mkvmerge v7.8.0 ('River Man') 32bit built on Mar 27 2015 16:18:02
Библиотека кодирования : libebml v1.3.1 + libmatroska v1.4.2

Видео
Идентификатор : 1
Формат : AVC
Формат/Информация : Advanced Video Codec
Профиль формата : High@L4
Настройки формата : CABAC / 1 Ref Frames
Параметр CABAC формата : Да
Параметр RefFrames формата : 1 кадр
Параметр GOP формата : M=1, N=50
Идентификатор кодека : V_MPEG4/ISO/AVC
Продолжительность : 48 м. 51 с.
Вид битрейта : Переменный
Битрейт : 4 500 Кбит/сек
Ширина : 1 920 пикселей
Высота : 1 040 пикселей
Соотношение сторон : 1,85:1
Режим частоты кадров : Постоянный
Частота кадров : 25,000 кадров/сек
Цветовое пространство : YUV
Субдискретизация насыщенности : 4:2:0
Битовая глубина : 8 бит
Тип развёртки : Прогрессивная
Бит/(Пиксели*Кадры) : 0.090
Размер потока : 1,52 Гбайт (96%)
Default : Да
Forced : Нет

Аудио
Идентификатор : 2
Формат : AC-3
Формат/Информация : Audio Coding 3
Коммерческое название : Dolby Digital
Идентификатор кодека : A_AC3
Продолжительность : 48 м. 51 с.
Вид битрейта : Постоянный
Битрейт : 192 Кбит/сек
Каналы : 2 канала
Channel layout : L R
Частота : 48,0 КГц
Частота кадров : 31,250 кадров/сек (1536 SPF)
Метод сжатия : С потерями
Размер потока : 67,1 Мбайт (4%)
Service kind : Complete Main
Default : Да
Forced : Нет

Внимание! Раздача ведётся путём добавления новых серий; при каждом добавлении создаётся новый торрент.
Чтобы начать докачку новой серии, пользователям необходимо сделать следующее:
1. Остановить скачивание;
2. Удалить старый торрент у себя из клиента (старые серии удалять не надо);
3. Скачать новый торрент и запустить его у себя в клиенте вместо старого, при этом указать клиенту путь в старую папку куда и должно происходить скачивание новых серий. Ваш клиент при этом должен произвести хеширование (проверку) старой папки и будет докачивать только те серии, которых у вас ещё нет. Старые серии при этом не удаляются, а продолжают раздаваться! Eсли вы уже удалили старые серии, то предотвратить повторную закачку старых серий можно, отжав галочку в соответствующих местах при запуске нового торрента.

piratbit.org



Скачать Взрыв через торрент https://img11.lostpic.net/2020/09/24/5bf189b6c13dde528172f53b18698bb5.jpg Скачать фильм Взрыв через торрент бесплантно в хорошем качестве Описание: Москва. Наши дни. Простой, знакомый всем спальный район. Подъезд самой обыкновенной пятиэтажки. Некоторые из жильцов знакомы друг ... 9.8 10 12
Торрент: Зарегистрирован [2020-11-12 11:56] · скачан: 80 раз
Статус: √ проверено
Размер: 25.92 GB
Как cкачать? Как скачать Взрыв через торрент | UTorrent

% Раздел Тема Автор DL S | L
TNT serials [ 9.38 GB ] Взрыв / Сезон: 1 / Серии: 1-16 из 16 [2018 WEBRip ] bober100 Скачать
4 | 0
TNT serials [ 17.61 GB ] Взрыв / Сезон: 1 / Серии: 1-16 из 16 [2018 WEBRip 720p ] bober100 Скачать
1 | 0
TNT serials [ 9.98 GB ] Взрыв / Сезон: 1 / Серии: 1-16 из 16 [2018 WEBRip-AVC ] bober100 Скачать
2 | 0

28-11-2019 20:33  

Отключить всю рекламу на сайте

    Дорогой пользователь! Огромная просьба, поблагодарите релизера, оцените раздачу и оставьте свои комментарий, если Вы скачали Взрыв через торрент бесплатно! Внесите свою лепту в развитие PiratBit!
    Комментировать посты могут только пользователи прошедшие не сложную регистрацию
    Показать сообщения:    

    Взрыв через торрент
    Скачать бесплатно Взрыв
    Взрыв скачать торрент
    Взрыв смотреть онлайн
    Cкачать фильм Взрыв бесплатно
    Взрыв скачать торрент в хорошем качестве
    Взрыв смотреть онлайн бесплатно в хорошем качестве


    Вы не можете начинать темы
    Вы не можете отвечать на сообщения
    Вы не можете редактировать свои сообщения
    Вы не можете удалять свои сообщения
    Вы не можете голосовать в опросах
    Вы не можете прикреплять файлы к сообщениям
    Вы можете скачивать файлы