Достать ножи: Стеклянная луковица

MVO

Добыча

Дубляж

Уэнсдэй

1 сезон

Тор

Дубляж

13 клиническая

1 сезон

Жестокая ночь

MVO

Одни из нас

1 сезон

Deluxe

pack

Рекомендуем

30

Пиратка

ВАЖНО

ВАЖНО

Ghostwire

Пиратка

jed

RePack

nioh2

RePack

RDR2

RePack

NEED FOR SPEED™ PAYBACK

RePack

скачать торрент

Кинопоиск HD

Острые козырьки 6 сезон

6 сезон

FAR CRY 6

RePack

скачать торрент

Лицензия

скачать торрент

MVO

1

1 сезон

скачать торрент

1 сезон

скачать торрент

Лицензия

  

Мой шпион / My Spy (Питер Сигал) [2020, Боевик, комедия, семейный, UHD WEB-DL 2160p] [Расширенная версия] Дубляж [iTunes]

Мой шпион через торрент piratbit.org

Размер: 11.15 GB | Добавлен: 2 года 4 мес. назад | Торрент скачан:222 раза
Смотреть онлайн | Скачать | Поддержите нас   

24-09-2020 07:51 Мой шпион Скачать торрент  

Мой шпион | My Spy
Год выпуска: 2020
Страна: США
Студия: MWM Studios, STX Entertainment, Odd Lot Entertainment, Robert Simonds Company, The
Жанр: Боевик, комедия, семейный
Продолжительность: 01:40:34
Перевод: Дублированный | iTunes
Субтитры: Английские

Режиссер: Питер Сигал

rating

В ролях: Дэйв Батиста, Хлоя Коулмэн, Париса Фитц-Хенли, Кристен Шаал, Грег Брайк, Кен Жонг, Никола Коррейя-Дамуд, Девере Роджерс, Ноа Дэнби, Вьеслав Кристиан

Описание: Опытный специальный агент ЦРУ выполняет очень секретную миссию. Он наблюдает за семейной парой. Главному герою предстоит полностью подчиниться власти девятилетней дочери объектов наблюдения, чтобы не быть раскрытым и довести дело до конца. Девочка очень шебутная и непредсказуемая. Агент ЦРУ вынужден выполнять все ее пожелания, иначе может провалить задание. А это чревато серьезными проблемами с начальством и нанесет сильнейший урон по репутации, вплоть до разжалования из отряда спецагентов. Кинокартина изобилует красочными кадрами, смешными моментами и неожиданными поворотами сюжета.

Качество: UHD WEB-DL 2160p | Расширенная версия
Формат: MKV

Видео: 3840x2160 at 23.976 fps, MPEG-H HEVC HDR Video, 14900 kbps avg
Аудио #01: 48 kHz, AC3, 5.1, 384 Kbps | iTunes | RUS |
Аудио #02: 48 kHz, E-AC3, 5.1, 640 Kbps | Оригинал | ENG |
скриншот  скриншот  скриншот  скриншот  скриншот  

General
Unique ID : 6852502786377887935804853787075162666 (0x527BE78D14563E9FAF892F3EE5A322A)
Complete name : D:Video111My.Spy.2020.WEB-DL.2160p.HDR.seleZen.mkv
Format : Matroska
Format version : Version 4
File size : 11.2 GiB
Duration : 1 h 40 min
Overall bit rate : 15.9 Mb/s
Movie name : My Spy 2020 from селезень
Encoded date : UTC 2020-09-23 20:56:15
Writing application : mkvmerge v40.0.0 ('Old Town Road + Pony') 64-bit
Writing library : libebml v1.3.9 + libmatroska v1.5.2

Video
ID : 1
Format : HEVC
Format/Info : High Efficiency Video Coding
Format profile : Main 10@L5@Main
HDR format : SMPTE ST 2094 App 4, Version 0, HDR10 compatible
Codec ID : V_MPEGH/ISO/HEVC
Duration : 1 h 40 min
Bit rate : 14.9 Mb/s
Width : 3 840 pixels
Height : 2 160 pixels
Display aspect ratio : 16:9
Frame rate mode : Constant
Frame rate : 23.976 (24000/1001) FPS
Standard : NTSC
Color space : YUV
Chroma subsampling : 4:2:0 (Type 2)
Bit depth : 10 bits
Bits/(Pixel*Frame) : 0.075
Stream size : 10.4 GiB (94%)
Language : English
Default : Yes
Forced : No
Color range : Limited
Color primaries : BT.2020
Transfer characteristics : PQ
Matrix coefficients : BT.2020 non-constant
Mastering display color pri: Display P3
Mastering display luminance: min: 0.0001 cd/m2, max: 1000 cd/m2
Maximum Content Light Level: 676 cd/m2
Maximum Frame-Average Light: 461 cd/m2

Audio #1
ID : 2
Format : AC-3
Format/Info : Audio Coding 3
Commercial name : Dolby Digital
Codec ID : A_AC3
Duration : 1 h 40 min
Bit rate mode : Constant
Bit rate : 384 kb/s
Channel(s) : 6 channels
Channel layout : L R C LFE Ls Rs
Sampling rate : 48.0 kHz
Frame rate : 31.250 FPS (1536 SPF)
Compression mode : Lossy
Stream size : 276 MiB (2%)
Title : iTunes
Language : Russian
Service kind : Complete Main
Default : No
Forced : No

Audio #2
ID : 3
Format : E-AC-3
Format/Info : Enhanced AC-3
Commercial name : Dolby Digital Plus
Codec ID : A_EAC3
Duration : 1 h 40 min
Bit rate mode : Constant
Bit rate : 640 kb/s
Channel(s) : 6 channels
Channel layout : L R C LFE Ls Rs
Sampling rate : 48.0 kHz
Frame rate : 31.250 FPS (1536 SPF)
Compression mode : Lossy
Stream size : 460 MiB (4%)
Title : Original
Language : English
Service kind : Complete Main
Default : No
Forced : No

Text
ID : 4
Format : UTF-8
Codec ID : S_TEXT/UTF8
Codec ID/Info : UTF-8 Plain Text
Duration : 1 h 31 min
Bit rate : 71 b/s
Count of elements : 1480
Stream size : 48.1 KiB (0%)
Title : SDH
Language : English
Default : No
Forced : No




Скачать Мой шпион через торрент https://i112.fastpic.ru/big/2020/0924/ae/05ba98e6bd37223eb636c690039f25ae.jpg Скачать, смотреть онлайн Мой шпион бесплантно в хорошем качестве Описание: Опытный специальный агент ЦРУ выполняет очень секретную миссию. Он наблюдает за семейной парой. Главному герою предстоит ... 9.7 10 7
Торрент: Зарегистрирован [2020-09-24 07:51] · скачан: 222 раз
Статус: √ проверено
Размер: 11.15 GB
Как cкачать? Как скачать Мой шпион через торрент | UTorrent

% Раздел Тема Автор DL S | L
Фильмы [HD 720p, 1080p] (Хороший звук DUB, MVO) [ 10.46 GB ] Мой шпион / My Spy | iTunes | 1080p killermax2013 Скачать
1 | 0
Фильмы 2019-2020 [DVDrip, WEB-DLRip, HDrip] (DUB, MVO) [ 1.42 GB ] Мой шпион / My Spy | Лицензия | BDRip Twi7ter Скачать
22 | 0
Фильмы 2019-2020 [DVDrip, WEB-DLRip, HDrip] (DUB, MVO) [ 751 MB ] Мой шпион / My Spy | iTunes | HDRip-AVC Lithuania Скачать
1 | 0
Фильмы 2019-2020 [DVDrip, WEB-DLRip, HDrip] (DUB, MVO) [ 745 MB ] Мой шпион / My Spy | iTunes | HDRip bober100 Скачать
1 | 0
Фильмы 2019-2020 [DVDrip, WEB-DLRip, HDrip] (DUB, MVO) [ 2.13 GB ] Мой шпион / My Spy | iTunes | BDRip-AVC bober100 Скачать
2 | 0
Фильмы 2019-2020 [DVDrip, WEB-DLRip, HDrip] (DUB, MVO) [ 1.45 GB ] Мой шпион / My Spy | iTunes | BDRip-AVC bober100 Скачать
1 | 0
Фильмы с украинским озвучиванием [ 8.61 GB ] Мой шпион / Мій шпигун / My Spy | DUB | 1080p killermax2013 Скачать
1 | 1

28-11-2019 20:33  


Отключить вcю реклaмy на сайте, в т.ч. и в плеере онлайн просмотра!

    Дорогой пользователь! Огромная просьба, поблагодарите релизера, оцените раздачу и оставьте свои комментарий, если Вы скачали Мой шпион через торрент бесплатно!!
    Комментировать посты могут только пользователи прошедшие не сложную регистрацию
    Показать сообщения:    


    Мой шпион через торрент
    Скачать бесплатно Мой шпион
    Мой шпион скачать торрент
    Мой шпион смотреть онлайн
    Cкачать фильм Мой шпион бесплатно
    Мой шпион скачать торрент в хорошем качестве
    Мой шпион смотреть онлайн бесплатно в хорошем качестве
    Вы не можете начинать темы
    Вы не можете отвечать на сообщения
    Вы не можете редактировать свои сообщения
    Вы не можете удалять свои сообщения
    Вы не можете голосовать в опросах
    Вы не можете прикреплять файлы к сообщениям
    Вы можете скачивать файлы
    Мой шпион / My Spy [2020, Боевик, комедия, семейный, UHD WEB-DL 2160p] [Расширенная версия] Дубляж [iTunes] смотреть онлайн, скачать торрент picoco.icu