1 сезон

3 сезон

iTunes

1

iTunes

DUB Netflix

iTunes

13

1 сезон

RePack

30

Deluxe

pack

Легкие деньги

ВАЖНО

ИГРА 18+

pack

RePack

MK11

RePack

jed

RePack

fifa19

RePack

RDR2

RePack

NEED FOR SPEED™ PAYBACK

4 сезон

9 сезон

Бесстыжие 9 сезон

Все сериалы

все сериалы на PB.wtf

RePack

FAR CRY 5

Anonymous, доброй ночи, мы не успеваем до 1 числа собрать деньги на оплату серверов, помогите нам пожалуйста в это трудное время. В качестве благодарности мы отключим Вам всю рекламу на сайте (укажите свой ник в строку Ваше имя)!

×
  
Magnet ссылка

Взрыв / Сезон: 1 / Серии: 1-16 из 16 (Андрей Мармонтов) [2018, Драма, криминал, WEBRip 720p, (Версия 18+)] piratbit.org

Взрыв через торрент piratbit.org

Размер: 17.61 GB | Добавлен: 7 мес. назад | Торрент скачан:22 раза
Скачать  

24-09-2020 10:53 Взрыв Скачать торрент  

Взрыв
Год выпуска: 2018
Страна: Россия
Выпущено: LEGIO FELIX по заказу телеканала НТВ
Жанр: Драма, криминал
Продолжительность: ~ 00:48:00
Перевод: Не требуется Русский
Субтитры: отсутствуют
Версия 18+. Внимание! Присутствует ненормативная лексика.

Режиссер: Андрей Мармонтов



В ролях: Дмитрий Чеботарёв, Нина Гогаева, Владислав Павлов, Екатерина Симаходская, Сергей Жарков, Алёна Ковалёва, Егор Клинаев, Алина Бабак, Алексей Лукин, Алексей Матошин, Артём Ешкин, Мария Ульянова, Анна Шкиль, Александр Сергеев (IV), Иван Куколев, Надежда Иванко

Описание: Москва. Наши дни. Простой, знакомый всем спальный район. Подъезд самой обыкновенной пятиэтажки. Некоторые из жильцов знакомы друг с другом, другие просто здороваются при встрече, а кто-то даже и не запоминает лиц своих соседей. Неожиданно все они становятся объединены ужасной трагедией: их подъезд взрывается, превращаясь в кучу дымящихся обломков. В один миг эти люди теряют всё: близких и родственников, крышу над головой, имущество. Одиночество, безысходность, пороки современного общества начинают затягивать их в свои сети. Смогут ли они противостоять этому и начать новую жизнь или так и сгниют на дне? А главное – разобраться в истинных причинах случившегося.

Качество: WEBRip 720p
Формат: MKV

Видео: MPEG-4 AVC, ~ 3000 Кбит/с, 1280x693, 25 кадр/с
Аудио: 48.0 kHz, AC3 Dolby Digital, 2/0 (L,R) ch, ~ 192 kbps
скриншот  скриншот  скриншот  скриншот  скриншот  

General
Unique ID : 241661254295284259553218206943264546984 (0xB5CE43BD1FA2395EA8A0AE6F53B2A0A8)
Complete name : H:\fiiles x\Взрыв.2020.WEB-DL 720p.Files-x\02. Взрыв.2020.WEB-DL 720p.Files-x.mkv
Format : Matroska
File size : 1.07 GiB
Duration : 48mn 11s
Overall bit rate : 3 166 Kbps
Encoded date : UTC 2020-09-24 08:41:43
Writing application : mkvmerge v7.8.0 ('River Man') 32bit built on Apr 3 2015 12:11:22
Writing library : libebml v1.3.1 + libmatroska v1.4.2

Video
ID : 1
Format : AVC
Format/Info : Advanced Video Codec
Format profile : High@L3.1
Format settings, CABAC : Yes
Format settings, ReFrames : 1 frame
Codec ID : V_MPEG4/ISO/AVC
Duration : 48mn 11s
Bit rate mode : Variable
Bit rate : 2 911 Kbps
Maximum bit rate : 3 000 Kbps
Width : 1 280 pixels
Height : 693 pixels
Display aspect ratio : 16:9
Original display aspect ratio : 16:9
Frame rate : 25.000 fps
Color space : YUV
Chroma subsampling : 4:2:0
Bit depth : 8 bits
Scan type : Progressive
Bits/(Pixel*Frame) : 0.132
Stream size : 1 004 MiB (92%)

Audio
ID : 2
Format : AC-3
Format/Info : Audio Coding 3
Mode extension : CM (complete main)
Codec ID : A_AC3
Duration : 48mn 11s
Bit rate mode : Constant
Bit rate : 192 Kbps
Channel(s) : 2 channels
Channel positions : Front: L R
Sampling rate : 44.1 KHz
Bit depth : 16 bits
Compression mode : Lossy
Delay relative to video : 9ms
Stream size : 66.2 MiB (6%)

Внимание! Раздача ведётся путём добавления новых серий; при каждом добавлении создаётся новый торрент.
Чтобы начать докачку новой серии, пользователям необходимо сделать следующее:
1. Остановить скачивание;
2. Удалить старый торрент у себя из клиента (старые серии удалять не надо);
3. Скачать новый торрент и запустить его у себя в клиенте вместо старого, при этом указать клиенту путь в старую папку куда и должно происходить скачивание новых серий. Ваш клиент при этом должен произвести хеширование (проверку) старой папки и будет докачивать только те серии, которых у вас ещё нет. Старые серии при этом не удаляются, а продолжают раздаваться! Eсли вы уже удалили старые серии, то предотвратить повторную закачку старых серий можно, отжав галочку в соответствующих местах при запуске нового торрента.

piratbit.org



Скачать Взрыв через торрент https://img11.lostpic.net/2020/09/24/5bf189b6c13dde528172f53b18698bb5.jpg Скачать фильм Взрыв через торрент бесплантно в хорошем качестве Описание: Москва. Наши дни. Простой, знакомый всем спальный район. Подъезд самой обыкновенной пятиэтажки. Некоторые из жильцов знакомы друг ... 10 10 3
Торрент: Зарегистрирован [2020-11-12 13:29] · скачан: 22 раз
Статус: √ проверено
Размер: 17.61 GB
Как cкачать? Как скачать Взрыв через торрент | UTorrent

% Раздел Тема Автор DL S | L
TNT serials [ 9.38 GB ] Взрыв / Сезон: 1 / Серии: 1-16 из 16 [2018 WEBRip ] bober100 Скачать
4 | 0
TNT serials [ 9.98 GB ] Взрыв / Сезон: 1 / Серии: 1-16 из 16 [2018 WEBRip-AVC ] bober100 Скачать
1 | 0
TNT serials [ 25.92 GB ] Взрыв / Сезон: 1 / Серии: 1-16 из 16 [2018 WEBRip 1080p ] bober100 Скачать
2 | 0

28-11-2019 20:33  

Отключить всю рекламу на сайте

    Дорогой пользователь! Огромная просьба, поблагодарите релизера, оцените раздачу и оставьте свои комментарий, если Вы скачали Взрыв через торрент бесплатно! Внесите свою лепту в развитие PiratBit!
    Комментировать посты могут только пользователи прошедшие не сложную регистрацию
    Показать сообщения:    

    Взрыв через торрент
    Скачать бесплатно Взрыв
    Взрыв скачать торрент
    Взрыв смотреть онлайн
    Cкачать фильм Взрыв бесплатно
    Взрыв скачать торрент в хорошем качестве
    Взрыв смотреть онлайн бесплатно в хорошем качестве


    Вы не можете начинать темы
    Вы не можете отвечать на сообщения
    Вы не можете редактировать свои сообщения
    Вы не можете удалять свои сообщения
    Вы не можете голосовать в опросах
    Вы не можете прикреплять файлы к сообщениям
    Вы можете скачивать файлы