Достать ножи: Стеклянная луковица

MVO

Добыча

Дубляж

Уэнсдэй

1 сезон

Тор

Дубляж

13 клиническая

1 сезон

Жестокая ночь

MVO

Одни из нас

1 сезон

Deluxe

pack

Рекомендуем

30

Пиратка

ВАЖНО

ВАЖНО

Ghostwire

Пиратка

jed

RePack

nioh2

RePack

RDR2

RePack

NEED FOR SPEED™ PAYBACK

RePack

скачать торрент

Кинопоиск HD

Острые козырьки 6 сезон

6 сезон

FAR CRY 6

RePack

скачать торрент

Лицензия

скачать торрент

MVO

1

1 сезон

скачать торрент

1 сезон

скачать торрент

Лицензия

  

Одержимость / Whiplash (Дэмьен Шазелл) [2014, Драма, музыка, UHD BDRemux 2160p] MVO [Лицензия] +3xAVO

Одержимость через торрент piratbit.org

Размер: 48.85 GB | Добавлен: 2 года 4 мес. назад | Торрент скачан:34 раза
Смотреть онлайн | Скачать | Поддержите нас   

24-09-2020 11:55 Одержимость Скачать торрент  

Одержимость | Whiplash
Год выпуска: 2014
Страна: США
Студия: Bold Films, Blumhouse Productions, Right of Way Films
Жанр: Драма, музыка
Продолжительность: 01:46:57
Перевод(ы):
#1: Профессиональный многоголосый | Лицензия (Blu-Ray RUS)
#2: Авторский | Алексей Матвеев
#3: Авторский | Юрий Немахов
#4: Авторский | Александр Дасевич
Субтитры: Русские (2 x full), английские

Режиссер: Дэмьен Шазелл

rating

В ролях:
  • Майлз Теллер, Дж.К. Симмонс, Пол Райзер, Мелисса Бенойст, Остин Стоуэлл, Нат Лэнг, Крис Малки, Дэймон Гаптон, Макс Кэш, Сюанн Споук, Чарли Йен, Джэйсон Блэр

Описание: Эндрю мечтает стать великим. Казалось бы, вот-вот его мечта осуществится. Юношу замечает настоящий гений, дирижер лучшего в стране оркестра. Желание Эндрю добиться успеха быстро становится одержимостью, а безжалостный наставник продолжает подталкивать его все дальше и дальше — за пределы человеческих возможностей. Кто выйдет победителем из этой схватки?

Качество: UHD BDRemux 2160p
Формат: MKV

Видео: 3840x2160 at 23.976 fps, MPEG-H HEVC HDR Video, 51800 kbps avg
Аудио #01: 48 kHz, DTS-HD MA, 5.1, 3271 Kbps | Лицензия | RUS |
Аудио #02: 48 kHz, AC3, 5.1, 640 Kbps | Лицензия | RUS |
Аудио #03: 48 kHz, DTS, 5.1, 1510 Kbps | Алексей Матвеев | RUS |
Аудио #04: 48 kHz, DTS-HD MA, 5.1, 2190 Kbps | Юрий Немахов | RUS |
Аудио #05: 48 kHz, DTS-HD MA, 5.1, 2190 Kbps | Александр Дасевич | RUS |
Аудио #06: 48 kHz, TrueHD, 7.1, 3032 Kbps | Оригинал | ENG |
Аудио #07: 48 kHz, AC3, 5.1, 640 Kbps | Оригинал | ENG |
скриншот  скриншот  скриншот  скриншот  скриншот  

General
Unique ID: 201377994173734285932385286405715306114 (0x977FFDAC6861909A14F1629AFBA2A682)
Complete name: D:Video1111Whiplash.2014.BDREMUX.2160p.HDR.seleZen.mkv
Format: Matroska
Format version: Version 4
File size: 48.8 GiB
Duration: 1 h 46 min
Overall bit rate mode: Variable
Overall bit rate: 65.4 Mb/s
Movie name: Whiplash 2014 4K UHD from селезень
Encoded date: UTC 2020-09-23 09:06:48
Writing application: mkvmerge v40.0.0 ('Old Town Road + Pony') 64-bit
Writing library: libebml v1.3.9 + libmatroska v1.5.2

Video
ID: 1
Format: HEVC
Format/Info: High Efficiency Video Coding
Format profile: Main 10@L5.1@High
HDR format: SMPTE ST 2086, HDR10 compatible
Codec ID: V_MPEGH/ISO/HEVC
Duration: 1 h 46 min
Bit rate: 51.8 Mb/s
Width: 3 840 pixels
Height: 2 160 pixels
Display aspect ratio: 16:9
Frame rate mode: Constant
Frame rate: 23.976 (24000/1001) FPS
Color space: YUV
Chroma subsampling: 4:2:0 (Type 2)
Bit depth: 10 bits
Bits/(Pixel*Frame): 0.261
Stream size: 38.7 GiB (79%)
Language: English
Default: Yes
Forced: No
Color range: Limited
Color primaries: BT.2020
Transfer characteristics: PQ
Matrix coefficients: BT.2020 non-constant
Mastering display color pri: Display P3
Mastering display luminance: min: 0.0050 cd/m2, max: 4000 cd/m2
Maximum Content Light Level: 1000 cd/m2
Maximum Frame-Average Light: 82 cd/m2

Audio #1
ID: 2
Format: DTS XLL
Format/Info: Digital Theater Systems
Commercial name: DTS-HD Master Audio
Codec ID: A_DTS
Duration: 1 h 46 min
Bit rate mode: Variable
Bit rate: 3 271 kb/s
Channel(s): 6 channels
Channel layout: C L R Ls Rs LFE
Sampling rate: 48.0 kHz
Frame rate: 93.750 FPS (512 SPF)
Bit depth: 24 bits
Compression mode: Lossless
Stream size: 2.44 GiB (5%)
Title: MVO [BD RUS]
Language: Russian
Default: Yes
Forced: Yes

Audio #2
ID: 3
Format: AC-3
Format/Info: Audio Coding 3
Commercial name: Dolby Digital
Codec ID: A_AC3
Duration: 1 h 46 min
Bit rate mode: Constant
Bit rate: 640 kb/s
Channel(s): 6 channels
Channel layout: L R C LFE Ls Rs
Sampling rate: 48.0 kHz
Frame rate: 31.250 FPS (1536 SPF)
Compression mode: Lossy
Stream size: 490 MiB (1%)
Title: MVO [BD RUS]
Language: Russian
Service kind: Complete Main
Default: No
Forced: No

Audio #3
ID: 4
Format: DTS
Format/Info: Digital Theater Systems
Codec ID: A_DTS
Duration: 1 h 46 min
Bit rate mode: Constant
Bit rate: 1 509 kb/s
Channel(s): 6 channels
Channel layout: C L R Ls Rs LFE
Sampling rate: 48.0 kHz
Frame rate: 93.750 FPS (512 SPF)
Bit depth: 24 bits
Compression mode: Lossy
Stream size: 1.13 GiB (2%)
Title: AVO [Алексей Матвеев]
Language: Russian
Default: No
Forced: No

Audio #4
ID: 5
Format: DTS XLL
Format/Info: Digital Theater Systems
Commercial name: DTS-HD Master Audio
Codec ID: A_DTS
Duration: 1 h 46 min
Bit rate mode: Variable
Bit rate: 2 190 kb/s
Channel(s): 6 channels
Channel layout: C L R Ls Rs LFE
Sampling rate: 48.0 kHz
Frame rate: 93.750 FPS (512 SPF)
Bit depth: 16 bits
Compression mode: Lossless
Stream size: 1.64 GiB (3%)
Title: AVO [Юрий Немахов]
Language: Russian
Default: No
Forced: No

Audio #5
ID: 6
Format: DTS XLL
Format/Info: Digital Theater Systems
Commercial name: DTS-HD Master Audio
Codec ID: A_DTS
Duration: 1 h 46 min
Bit rate mode: Variable
Bit rate: 2 190 kb/s
Channel(s): 6 channels
Channel layout: C L R Ls Rs LFE
Sampling rate: 48.0 kHz
Frame rate: 93.750 FPS (512 SPF)
Bit depth: 16 bits
Compression mode: Lossless
Stream size: 1.64 GiB (3%)
Title: AVO [Александр Дасевич]
Language: Russian
Default: No
Forced: No

Audio #6
ID: 7
Format: MLP FBA 16-ch
Format/Info: Meridian Lossless Packing FBA with 16-channel presentation
Commercial name: Dolby TrueHD with Dolby Atmos
Codec ID: A_TRUEHD
Duration: 1 h 46 min
Bit rate mode: Variable
Bit rate: 3 032 kb/s
Maximum bit rate: 5 253 kb/s
Channel(s): 8 channels
Channel layout: L R C LFE Ls Rs Lb Rb
Sampling rate: 48.0 kHz
Frame rate: 1 200.000 FPS (40 SPF)
Compression mode: Lossless
Stream size: 2.26 GiB (5%)
Title: Original
Language: English
Default: No
Forced: No
Number of dynamic objects: 11
Bed channel count: 1 channel
Bed channel configuration: LFE

Audio #7
ID: 8
Format: AC-3
Format/Info: Audio Coding 3
Commercial name: Dolby Digital
Codec ID: A_AC3
Duration: 1 h 46 min
Bit rate mode: Constant
Bit rate: 640 kb/s
Channel(s): 6 channels
Channel layout: L R C LFE Ls Rs
Sampling rate: 48.0 kHz
Frame rate: 31.250 FPS (1536 SPF)
Compression mode: Lossy
Stream size: 490 MiB (1%)
Language: English
Service kind: Complete Main
Default: No
Forced: No

Text #1
ID: 9
Format: UTF-8
Codec ID: S_TEXT/UTF8
Codec ID/Info: UTF-8 Plain Text
Duration: 1 h 36 min
Bit rate: 69 b/s
Count of elements: 983
Stream size: 48.9 KiB (0%)
Title: Full [iTunes]
Language: Russian
Default: No
Forced: No

Text #2
ID: 10
Format: UTF-8
Codec ID: S_TEXT/UTF8
Codec ID/Info: UTF-8 Plain Text
Duration: 1 h 39 min
Bit rate: 66 b/s
Count of elements: 933
Stream size: 48.6 KiB (0%)
Title: Full [MartinaG]
Language: Russian
Default: No
Forced: No

Text #3
ID: 11
Format: UTF-8
Codec ID: S_TEXT/UTF8
Codec ID/Info: UTF-8 Plain Text
Duration: 1 h 35 min
Bit rate: 44 b/s
Count of elements: 894
Stream size: 31.3 KiB (0%)
Title: Full
Language: English
Default: No
Forced: No

Text #4
ID: 12
Format: UTF-8
Codec ID: S_TEXT/UTF8
Codec ID/Info: UTF-8 Plain Text
Duration: 1 h 44 min
Bit rate: 44 b/s
Count of elements: 1023
Stream size: 33.8 KiB (0%)
Title: SDH
Language: English
Default: No
Forced: No

Menu
00:00:00.000: en:Chapter 1
00:07:02.922: en:Chapter 2
00:14:45.551: en:Chapter 3
00:24:37.476: en:Chapter 4
00:30:17.190: en:Chapter 5
00:35:55.070: en:Chapter 6
00:43:42.453: en:Chapter 7
00:47:06.407: en:Chapter 8
00:53:23.575: en:Chapter 9
01:02:48.598: en:Chapter 10
01:10:41.654: en:Chapter 11
01:14:14.700: en:Chapter 12
01:17:59.884: en:Chapter 13
01:23:17.201: en:Chapter 14
01:25:39.384: en:Chapter 15
01:32:07.313: en:Chapter 16
01:42:42.156: en:Chapter 17




Скачать Одержимость через торрент https://b.radikal.ru/b02/2009/a6/9da8f3df09c9.jpg Скачать, смотреть онлайн Одержимость бесплантно в хорошем качестве Описание: Эндрю мечтает стать великим. Казалось бы, вот-вот его мечта осуществится. Юношу замечает настоящий гений, дирижер лучшего в ... 10 10 3
Торрент: Зарегистрирован [2020-09-24 11:55] · скачан: 34 раз
Статус: √ проверено
Размер: 48.85 GB
Как cкачать? Как скачать Одержимость через торрент | UTorrent

% Раздел Тема Автор DL S | L
Фильмы (Blu-ray, BD-Remux, HDDVD) [ 27.04 GB ] Одержимость / Whiplash | MVO + 3xAVO - KORSAR | 1080p kisa1980 Скачать
1 | 0

28-11-2019 20:33  


Отключить вcю реклaмy на сайте, в т.ч. и в плеере онлайн просмотра!

    Дорогой пользователь! Огромная просьба, поблагодарите релизера, оцените раздачу и оставьте свои комментарий, если Вы скачали Одержимость через торрент бесплатно!!
    Комментировать посты могут только пользователи прошедшие не сложную регистрацию
    Показать сообщения:    


    Одержимость через торрент
    Скачать бесплатно Одержимость
    Одержимость скачать торрент
    Одержимость смотреть онлайн
    Cкачать фильм Одержимость бесплатно
    Одержимость скачать торрент в хорошем качестве
    Одержимость смотреть онлайн бесплатно в хорошем качестве
    Вы не можете начинать темы
    Вы не можете отвечать на сообщения
    Вы не можете редактировать свои сообщения
    Вы не можете удалять свои сообщения
    Вы не можете голосовать в опросах
    Вы не можете прикреплять файлы к сообщениям
    Вы можете скачивать файлы
    Одержимость / Whiplash [2014, Драма, музыка, UHD BDRemux 2160p] MVO [Лицензия] +3xAVO смотреть онлайн, скачать торрент picoco.icu