1 сезон

3 сезон

iTunes

1

iTunes

DUB Netflix

iTunes

13

1 сезон

RePack

30

Deluxe

pack

Легкие деньги

ВАЖНО

ИГРА 18+

pack

RePack

MK11

RePack

jed

RePack

fifa19

RePack

RDR2

RePack

NEED FOR SPEED™ PAYBACK

4 сезон

9 сезон

Бесстыжие 9 сезон

Все сериалы

все сериалы на PB.wtf

RePack

FAR CRY 5

Anonymous, доброй ночи, мы не успеваем до 1 числа собрать деньги на оплату серверов, помогите нам пожалуйста в это трудное время. В качестве благодарности мы отключим Вам всю рекламу на сайте (укажите свой ник в строку Ваше имя)!

×
  
Magnet ссылка

Чича из Ольги / Серии: 1-2 из 2 (Артём Лемперт) [2020, Комедия, HDTV 1080i] piratbit.org

Чича из Ольги через торрент piratbit.org

Размер: 2.06 GB | Добавлен: 8 мес. назад | Торрент скачан:172 раза
Скачать  

29-09-2020 01:56 Чича из Ольги Скачать торрент  

Чича из Ольги
Год выпуска: 2020
Страна: Россия
Студия: Good Story Media
Жанр: Комедия
Продолжительность: ~ 00:25:00 серия
Перевод: Не требуется
Субтитры: отсутствуют

Режиссер: Артём Лемперт



В ролях: Тимофей Зайцев, Илья Борисов, Гоша Куценко, Яна Троянова, Василий Кортуков, Алина Алексеева (II)

Описание: Мини-сериал в жанре мокьюментари о приключениях Чичи из сериала «Ольга» и его друга детства Бабая. Тимофей «Чича» Зайцев уверен, что давно перерос образ Чичи, и изо всех сил старается доказать, чего стоит на самом деле… А пока, в отсутствие новых «серьезных» ролей, он снимает видеоблог, пытается произвести впечатление на бывшую и попасть на пробы к самому Звягинцеву! Но из-за своего характера и неуемных амбиций Тимофей каждый раз попадает в нелепые и смешные ситуации. Каждая серия – это сразу две комедийные новеллы о творческих поисках Чичи из «Ольги».

Качество: HDTV 1080i
Формат: TS

Видео: 1920х1080 (16:9), 25 fps, AVC MPEG-4 (x264), High@L4.0 ~ 6000 kbps avg, 0.105 bit/pixel
Аудио: 48 kHz, MPEG Layer 2, 2 ch, ~ 192 kbps avg
скриншот  скриншот  скриншот  скриншот  

Общее
Идентификатор : 1 (0x1)
Полное имя : C:\Chicha.iz.Olgi.2020.HDTV.(1080i).ExKinoRay\Chicha.iz.Olgi.E01.2020.HDTV.(1080i).ExKinoRay.ts
Формат : MPEG-TS
Размер файла : 1,02 Гбайт
Продолжительность : 24 м. 29 с.
Режим общего битрейта : Переменный
Общий поток : 5948 Кбит/сек

Видео
Идентификатор : 211 (0xD3)
Идентификатор меню : 1 (0x1)
Формат : AVC
Формат/Информация : Advanced Video Codec
Профиль формата : High@L4
Настройки формата : CABAC / 4 Ref Frames
Параметр CABAC формата : Да
Параметр RefFrames формата : 4 кадра
Идентификатор кодека : 27
Продолжительность : 24 м. 28 с.
Битрейт : 5461 Кбит/сек
Ширина : 1920 пикселей
Высота : 1080 пикселей
Соотношение сторон : 16:9
Частота кадров : 25,000 кадров/сек
Стандарт вещания : Component
Цветовое пространство : YUV
Субдискретизация насыщенности : 4:2:0
Битовая глубина : 8 бит
Тип развёртки : Чересстрочная
Метод сохранения типа развёртки : Раздельные поля
Порядок развёртки : Верхнее поле первое
Бит/(Пиксели*Кадры) : 0.105
Размер потока : 956 Мбайт (92%)
Цветовой диапазон : Limited
Основные цвета : BT.709
Характеристики трансфера : BT.709
Коэффициенты матрицы : BT.709

Аудио
Идентификатор : 221 (0xDD)
Идентификатор меню : 1 (0x1)
Формат : MPEG Audio
Версия формата : Version 1
Профиль формата : Layer 2
Идентификатор кодека : 3
Продолжительность : 24 м. 29 с.
Вид битрейта : Постоянный
Битрейт : 192 Кбит/сек
Каналы : 2 канала
Частота : 48,0 КГц
Частота кадров : 41,667 кадра/сек (1152 SPF)
Метод сжатия : С потерями
Задержка видео : -80 мс.
Размер потока : 33,6 Мбайт (3%)
Язык : Russian

Когда раздача ведётся путём добавления новых серий, при каждом добавлении создётся новый торрент. Чтобы начать докачку новой серии, пользователям необходимо сделать следующее:
(1) остановить скачивание,
(2) удалить старый торрент у себя из клиента (старые серии удалять не надо),
(3) скачать новый торрент и запустить его у себя в клиенте вместо старого, при этом указать клиенту путь в старую папку, куда и должно происходить скачивание новых серий.
Ваш клиент при этом должен произвести хеширование (проверку) старой папки (если не производит сам - помогите ему сделать это), и будет докачивать только те серии, которых у вас ещё нет. Старые серии при этом не удаляются, а продолжают раздаваться!
Eсли вы уже удалили старые серии, то предотвратить повторную закачку старых серий можно, отжав галочку в соответсвующих местах при запуске нового торрента. По возможности, желательно не удалять старые серии как можно дольше, чтобы релизёр не столько продолжал раздавать старые серии, а смог сконцентрироваться на новых.

piratbit.org



Скачать Чича из Ольги через торрент https://img11.lostpic.net/2020/09/28/de333d03f36c50adb816029a444dd59e.jpg Скачать фильм Чича из Ольги через торрент бесплантно в хорошем качестве Описание: Мини-сериал в жанре мокьюментари о приключениях Чичи из сериала «Ольга» и его друга детства Бабая. Тимофей «Чича» Зайцев уверен, ... 10 10 7
Торрент: Зарегистрирован [2020-09-30 04:39] · скачан: 172 раз
Статус: √ проверено
Размер: 2.06 GB
Как cкачать? Как скачать Чича из Ольги через торрент | UTorrent

% Раздел Тема Автор DL S | L
TNT serials [ 1.13 GB ] Чича из Ольги / Серии: 1-2 из 2 [2020 WEBRip 720p] bober100 Скачать
1 | 0
TNT serials [ 1.66 GB ] Чича из Ольги / Серии: 1-2 из 2 [2020 WEBRip 1080p] bober100 Скачать
1 | 0
TNT serials [ 650 MB ] Чича из Ольги / Серии: 1-2 из 2 [2020 SATRip] bober100 Скачать
1 | 0

28-11-2019 20:33  

Отключить всю рекламу на сайте


30-09-2020 05:37 Чича из Ольги Скачать торрент  

Аааа Тимофей красавец. Спасибо. Отличный же артист совершенно не замеченный режиссерами, а зря.piratbit.org



    Дорогой пользователь! Огромная просьба, поблагодарите релизера, оцените раздачу и оставьте свои комментарий, если Вы скачали Чича из Ольги через торрент бесплатно! Внесите свою лепту в развитие PiratBit!
    Комментировать посты могут только пользователи прошедшие не сложную регистрацию
    Показать сообщения:    

    Чича из Ольги через торрент
    Скачать бесплатно Чича из Ольги
    Чича из Ольги скачать торрент
    Чича из Ольги смотреть онлайн
    Cкачать фильм Чича из Ольги бесплатно
    Чича из Ольги скачать торрент в хорошем качестве
    Чича из Ольги смотреть онлайн бесплатно в хорошем качестве


    Вы не можете начинать темы
    Вы не можете отвечать на сообщения
    Вы не можете редактировать свои сообщения
    Вы не можете удалять свои сообщения
    Вы не можете голосовать в опросах
    Вы не можете прикреплять файлы к сообщениям
    Вы можете скачивать файлы