1 сезон

3 сезон

iTunes

1

iTunes

DUB Netflix

iTunes

13

1 сезон

RePack

30

Deluxe

pack

Легкие деньги

ВАЖНО

ИГРА 18+

pack

RePack

MK11

RePack

jed

RePack

fifa19

RePack

RDR2

RePack

NEED FOR SPEED™ PAYBACK

4 сезон

9 сезон

Бесстыжие 9 сезон

Все сериалы

все сериалы на PB.wtf

RePack

FAR CRY 5

Anonymous, добрый день, мы не успеваем до 1 числа собрать деньги на оплату серверов, помогите нам пожалуйста в это трудное время. В качестве благодарности мы отключим Вам всю рекламу на сайте (укажите свой ник в строку Ваше имя)!

×
  
Magnet ссылка

Чича из Ольги / Серии: 1-2 из 2 (Артём Лемперт) [2020, Комедия, SATRip] piratbit.org

Чича из Ольги через торрент piratbit.org

Размер: 650 MB | Добавлен: 8 мес. назад | Торрент скачан:261 раз
Скачать  

29-09-2020 13:07 Чича из Ольги Скачать торрент  

Чича из Ольги
Год выпуска: 2020
Страна: Россия
Студия: Good Story Media
Жанр: Комедия
Продолжительность: ~ 00:25:00 серия
Перевод: Не требуется
Субтитры: отсутствуют

Режиссер: Артём Лемперт



В ролях: Тимофей Зайцев, Илья Борисов, Гоша Куценко, Яна Троянова, Василий Кортуков, Алина Алексеева (II)

Описание: Мини-сериал в жанре мокьюментари о приключениях Чичи из сериала «Ольга» и его друга детства Бабая. Тимофей «Чича» Зайцев уверен, что давно перерос образ Чичи, и изо всех сил старается доказать, чего стоит на самом деле… А пока, в отсутствие новых «серьезных» ролей, он снимает видеоблог, пытается произвести впечатление на бывшую и попасть на пробы к самому Звягинцеву! Но из-за своего характера и неуемных амбиций Тимофей каждый раз попадает в нелепые и смешные ситуации. Каждая серия – это сразу две комедийные новеллы о творческих поисках Чичи из «Ольги».

Качество: SATRip
Формат: AVI

Видео: XviD, ~ 1500 Кбит/с, 720x400
Аудио: MP3, 2 ch, 192 Кбит/с
скриншот  скриншот  скриншот  скриншот  

Общее
Полное имя : C:\Chicha.iz.Olgi.2020.XviD.SATRip.25Kuzmich\Chicha.iz.Olgi.e01.XviD.SATRip.25Kuzmich.avi
Формат : AVI
Формат/Информация : Audio Video Interleave
Размер файла : 324 Мбайт
Продолжительность : 24 м. 29 с.
Общий поток : 1848 Кбит/сек
Программа кодирования : VirtualDubMod 1.5.10.3 (build 2550/release)
Библиотека кодирования : VirtualDubMod build 2550/release

Видео
Идентификатор : 0
Формат : MPEG-4 Visual
Профиль формата : Advanced Simple@L5
Настройки формата : BVOP1
Параметр BVOP формата : 1
Параметр QPel формата : Нет
Параметр GMC формата : Без точки перехода
Параметр матрицы формата : Default (MPEG)
Идентификатор кодека : XVID
Идентификатор кодека/Подсказка : XviD
Продолжительность : 24 м. 29 с.
Битрейт : 1574 Кбит/сек
Ширина : 720 пикселей
Высота : 400 пикселей
Соотношение сторон : 16:9
Частота кадров : 25,000 кадров/сек
Цветовое пространство : YUV
Субдискретизация насыщенности : 4:2:0
Битовая глубина : 8 бит
Тип развёртки : Прогрессивная
Метод сжатия : С потерями
Бит/(Пиксели*Кадры) : 0.219
Размер потока : 276 Мбайт (85%)
Библиотека кодирования : XviD 73

Аудио
Идентификатор : 1
Формат : MPEG Audio
Версия формата : Version 1
Профиль формата : Layer 3
Настройки формата : Joint stereo / MS Stereo
Идентификатор кодека : 55
Идентификатор кодека/Подсказка : MP3
Продолжительность : 24 м. 29 с.
Вид битрейта : Постоянный
Битрейт : 192 Кбит/сек
Каналы : 2 канала
Частота : 48,0 КГц
Частота кадров : 41,667 кадра/сек (1152 SPF)
Метод сжатия : С потерями
Размер потока : 33,6 Мбайт (10%)
Выравнивание : Соединение по промежуткам
Библиотека кодирования : LAME3.99r
Настройки программы : -m j -V 4 -q 2 -lowpass 18.6 -b 192

piratbit.org



Скачать Чича из Ольги через торрент https://img11.lostpic.net/2020/09/28/de333d03f36c50adb816029a444dd59e.jpg Скачать фильм Чича из Ольги через торрент бесплантно в хорошем качестве Описание: Мини-сериал в жанре мокьюментари о приключениях Чичи из сериала «Ольга» и его друга детства Бабая. Тимофей «Чича» Зайцев уверен, ... 10 10 11
Торрент: Зарегистрирован [2020-09-29 13:07] · скачан: 261 раз
Статус: √ проверено
Размер: 650 MB
Как cкачать? Как скачать Чича из Ольги через торрент | UTorrent

% Раздел Тема Автор DL S | L
TNT serials [ 1.13 GB ] Чича из Ольги / Серии: 1-2 из 2 [2020 WEBRip 720p] bober100 Скачать
1 | 0
TNT serials [ 1.66 GB ] Чича из Ольги / Серии: 1-2 из 2 [2020 WEBRip 1080p] bober100 Скачать
1 | 0
TNT serials [ 2.06 GB ] Чича из Ольги / Серии: 1-2 из 2 [2020 HDTV 1080i] bober100 Скачать
1 | 0

28-11-2019 20:33  

Отключить всю рекламу на сайте

    Дорогой пользователь! Огромная просьба, поблагодарите релизера, оцените раздачу и оставьте свои комментарий, если Вы скачали Чича из Ольги через торрент бесплатно! Внесите свою лепту в развитие PiratBit!
    Комментировать посты могут только пользователи прошедшие не сложную регистрацию
    Показать сообщения:    

    Чича из Ольги через торрент
    Скачать бесплатно Чича из Ольги
    Чича из Ольги скачать торрент
    Чича из Ольги смотреть онлайн
    Cкачать фильм Чича из Ольги бесплатно
    Чича из Ольги скачать торрент в хорошем качестве
    Чича из Ольги смотреть онлайн бесплатно в хорошем качестве


    Вы не можете начинать темы
    Вы не можете отвечать на сообщения
    Вы не можете редактировать свои сообщения
    Вы не можете удалять свои сообщения
    Вы не можете голосовать в опросах
    Вы не можете прикреплять файлы к сообщениям
    Вы можете скачивать файлы