1 сезон

3 сезон

iTunes

1

iTunes

DUB Netflix

iTunes

13

1 сезон

RePack

30

Deluxe

pack

Легкие деньги

ВАЖНО

ИГРА 18+

pack

RePack

MK11

RePack

jed

RePack

fifa19

RePack

RDR2

RePack

NEED FOR SPEED™ PAYBACK

4 сезон

9 сезон

Бесстыжие 9 сезон

Все сериалы

все сериалы на PB.wtf

RePack

FAR CRY 5

Anonymous, доброй ночи, мы не успеваем до 1 числа собрать деньги на оплату серверов, помогите нам пожалуйста в это трудное время. В качестве благодарности мы отключим Вам всю рекламу на сайте (укажите свой ник в строку Ваше имя)!

×
  
Magnet ссылка

Чича из Ольги / Серии: 1-2 из 2 (Артём Лемперт) [2020, Комедия, WEBRip 1080p] piratbit.org

Чича из Ольги через торрент piratbit.org

Размер: 1.66 GB | Добавлен: 8 мес. назад | Торрент скачан:177 раз
Скачать  

30-09-2020 06:26 Чича из Ольги Скачать торрент  

Чича из Ольги
Год выпуска: 2020
Страна: Россия
Студия: Good Story Media
Жанр: Комедия
Продолжительность: ~ 00:25:00 серия
Перевод: Не требуется
Субтитры: отсутствуют

Режиссер: Артём Лемперт



В ролях: Тимофей Зайцев, Илья Борисов, Гоша Куценко, Яна Троянова, Василий Кортуков, Алина Алексеева (II)

Описание: Мини-сериал в жанре мокьюментари о приключениях Чичи из сериала «Ольга» и его друга детства Бабая. Тимофей «Чича» Зайцев уверен, что давно перерос образ Чичи, и изо всех сил старается доказать, чего стоит на самом деле… А пока, в отсутствие новых «серьезных» ролей, он снимает видеоблог, пытается произвести впечатление на бывшую и попасть на пробы к самому Звягинцеву! Но из-за своего характера и неуемных амбиций Тимофей каждый раз попадает в нелепые и смешные ситуации. Каждая серия – это сразу две комедийные новеллы о творческих поисках Чичи из «Ольги».

Качество: WEBRip 1080p
Формат: MKV

Видео: MPEG-4 AVC, ~ 4500 Кбит/с, 1920x1072
Аудио: 48.0 kHz, AC3 Dolby Digital, 2/0 (L,R) ch, ~ 192 kbps
скриншот  скриншот  скриншот  скриншот  

Общее
Уникальный идентификатор : 224644290931943895158155304476241613878 (0xA900EAAB2829E953B9FFFD981280D436)
Полное имя : C:\Chicha.iz.Olgi.2020.WEB-DL.(1080p).Getty\Chicha.iz.Olgi.e01.2020.WEB-DL.(1080p).Getty.mkv
Формат : Matroska
Версия формата : Version 4
Размер файла : 825 Мбайт
Продолжительность : 24 м. 46 с.
Режим общего битрейта : Переменный
Общий поток : 4660 Кбит/сек
Название фильма : Chicha.iz.Olgi.e01.2020.WEB-DL.(1080p).Getty
Дата кодирования : UTC 2020-09-28 18:02:27
Программа кодирования : mkvmerge v7.8.0 ('River Man') 32bit built on Mar 27 2015 16:18:02
Библиотека кодирования : libebml v1.3.1 + libmatroska v1.4.2

Видео
Идентификатор : 1
Формат : AVC
Формат/Информация : Advanced Video Codec
Профиль формата : High@L4
Настройки формата : CABAC / 1 Ref Frames
Параметр CABAC формата : Да
Параметр RefFrames формата : 1 кадр
Идентификатор кодека : V_MPEG4/ISO/AVC
Продолжительность : 24 м. 46 с.
Вид битрейта : Переменный
Битрейт : 4375 Кбит/сек
Максимальный битрейт : 4500 Кбит/сек
Ширина : 1920 пикселей
Высота : 1072 пикселя
Соотношение сторон : 16:9
Режим частоты кадров : Постоянный
Частота кадров : 25,000 кадров/сек
Цветовое пространство : YUV
Субдискретизация насыщенности : 4:2:0
Битовая глубина : 8 бит
Тип развёртки : Прогрессивная
Бит/(Пиксели*Кадры) : 0.085
Размер потока : 775 Мбайт (94%)
Default : Да
Forced : Нет

Аудио
Идентификатор : 2
Формат : AC-3
Формат/Информация : Audio Coding 3
Коммерческое название : Dolby Digital
Идентификатор кодека : A_AC3
Продолжительность : 24 м. 46 с.
Вид битрейта : Постоянный
Битрейт : 192 Кбит/сек
Каналы : 2 канала
ChannelLayout : L R
Частота : 48,0 КГц
Частота кадров : 31,250 кадров/сек (1536 SPF)
Битовая глубина : 16 бит
Метод сжатия : С потерями
Размер потока : 34,0 Мбайт (4%)
ServiceKind/String : Complete Main
Default : Да
Forced : Нет

piratbit.org



Скачать Чича из Ольги через торрент https://img11.lostpic.net/2020/09/28/de333d03f36c50adb816029a444dd59e.jpg Скачать фильм Чича из Ольги через торрент бесплантно в хорошем качестве Описание: Мини-сериал в жанре мокьюментари о приключениях Чичи из сериала «Ольга» и его друга детства Бабая. Тимофей «Чича» Зайцев уверен, ... 10 10 5
Торрент: Зарегистрирован [2020-09-30 06:26] · скачан: 177 раз
Статус: √ проверено
Размер: 1.66 GB
Как cкачать? Как скачать Чича из Ольги через торрент | UTorrent

% Раздел Тема Автор DL S | L
TNT serials [ 1.13 GB ] Чича из Ольги / Серии: 1-2 из 2 [2020 WEBRip 720p] bober100 Скачать
1 | 0
TNT serials [ 2.06 GB ] Чича из Ольги / Серии: 1-2 из 2 [2020 HDTV 1080i] bober100 Скачать
1 | 0
TNT serials [ 650 MB ] Чича из Ольги / Серии: 1-2 из 2 [2020 SATRip] bober100 Скачать
1 | 0

28-11-2019 20:33  

Отключить всю рекламу на сайте

    Дорогой пользователь! Огромная просьба, поблагодарите релизера, оцените раздачу и оставьте свои комментарий, если Вы скачали Чича из Ольги через торрент бесплатно! Внесите свою лепту в развитие PiratBit!
    Комментировать посты могут только пользователи прошедшие не сложную регистрацию
    Показать сообщения:    

    Чича из Ольги через торрент
    Скачать бесплатно Чича из Ольги
    Чича из Ольги скачать торрент
    Чича из Ольги смотреть онлайн
    Cкачать фильм Чича из Ольги бесплатно
    Чича из Ольги скачать торрент в хорошем качестве
    Чича из Ольги смотреть онлайн бесплатно в хорошем качестве


    Вы не можете начинать темы
    Вы не можете отвечать на сообщения
    Вы не можете редактировать свои сообщения
    Вы не можете удалять свои сообщения
    Вы не можете голосовать в опросах
    Вы не можете прикреплять файлы к сообщениям
    Вы можете скачивать файлы