2 сезон

iTunes

WEBRip

1

2 сезон

iTunes

1 сезон

1 сезон

RePack

30

Ultimate

ВАЖНО

ИГРА 18+

pack

RePack

MK11
pack

Легкие деньги

RePack

jed

RePack

fifa19

RePack

RDR2

RePack

NEED FOR SPEED™ PAYBACK

4 сезон

9 сезон

Бесстыжие 9 сезон

Все сериалы

все сериалы на PB.wtf

RePack

FAR CRY 5

Anonymous, доброе утро, мы не успеваем собрать деньги на оплату серверов за февраль, помогите нам пожалуйста в это трудное время. В качестве благодарности мы отключим Вам всю рекламу на сайте (укажите свой ник в строку Ваше имя)!

×
  
Magnet ссылка

Ходячие мертвецы: Мир за пределами / The Walking Dead: World Beyond / Сезон: 1 / Серии: 1-10 из 10 (Магнус Мартенс, Дэн Лью, Джордан Вот-Робертс) [2020, Ужасы, фантастика, драма, WEB-DL 720p] [Ukr MVO] (DniproFilm) piratbit.org

Ходячие мертвецы: Мир за пределами через торрент piratbit.org

Размер: 18.11 GB | Добавлен: 2 мес. 29 д. назад | Торрент скачан:0 раз
Скачать  

02-10-2020 08:34 Ходячие мертвецы: Мир за пределами Скачать торрент  

Ходячие мертвецы: Мир за пределами / The Walking Dead: World Beyond

Год выпуска: 2020
Страна: США
Студия: AMC Studios
Жанр: Ужасы, фантастика, драма
Продолжительность: ~ 00:53:00
Перевод: Украинский (профессиональный, многоголосный) DniproFilm
Субтитры: украинские (forced)

Режиссер: Магнус Мартенс, Дэн Лью, Джордан Вот-Робертс

В ролях: Аннет Махендру, Алайя Ройял, Нико Торторелла, Джо Холт, Аарон Снайдер, Николас Канту, Кристина Браудер, Саманта Лоррейн, Джелани Алладин, Кристина Брукато и другие.

Описание: Рассказ о жизни первого поколения, выросшего в захваченном зомби мире. Группа подростков отправится в путешествие, связанное с исчезновением Рика Граймса.

rating

Качество: WEB-DL 720p
Формат: MKV
Видео: 1280x720, ~ 4 051 Кбит/сек, 23,976 fps
Аудио Ukr: 48 kHz, AC3 Dolby Digital, 2 ch, ~192.00 kbps - DniproFilm
Аудио Eng: 48 kHz, E-AC3 Dolby Digital, 6 ch, ~640.00 kbps
скриншот  скриншот  скриншот  

General
Unique ID : 231381874813499435551073536836993187830 (0xAE128733794A6DDFCED6C0F1C3FE7FF6)
Complete name : G:\The Walking Dead World Beyond (Seasons 01) [Ukr_Eng] WEB-DL 720p\The Walking Dead World Beyond S01E02 - The Blaze of Gory [Ukr_Eng] WEB-DL 720p.mkv
Format : Matroska
Format version : Version 4 / Version 2
File size : 1.78 GiB
Duration : 47mn 12s
Overall bit rate : 5 408 Kbps
Encoded date : UTC 2020-10-09 15:50:18
Writing application : mkvmerge v47.0.0 ('Black Flag') 64-bit
Writing library : libebml v1.3.10 + libmatroska v1.5.2
Attachements : cover.jpg
DURATION : 00:31:04.157000000
NUMBER_OF_FRAMES : 6
NUMBER_OF_BYTES : 211
_STATISTICS_WRITING_APP : mkvmerge v47.0.0 ('Black Flag') 64-bit
_STATISTICS_WRITING_DATE_UTC : 2020-10-09 15:50:18
_STATISTICS_TAGS : BPS DURATION NUMBER_OF_FRAMES NUMBER_OF_BYTES

Video
ID : 1
Format : AVC
Format/Info : Advanced Video Codec
Format profile : High@L3.1
Format settings, CABAC : Yes
Format settings, ReFrames : 4 frames
Codec ID : V_MPEG4/ISO/AVC
Duration : 47mn 12s
Bit rate mode : Constant
Bit rate : 4 469 Kbps
Nominal bit rate : 6 000 Kbps
Width : 1 280 pixels
Height : 720 pixels
Display aspect ratio : 16:9
Frame rate mode : Constant
Frame rate : 24.000 fps
Color space : YUV
Chroma subsampling : 4:2:0
Bit depth : 8 bits
Scan type : Progressive
Bits/(Pixel*Frame) : 0.202
Stream size : 1.47 GiB (83%)
Language : English
Default : Yes
Forced : No
Color range : Limited
Color primaries : BT.709
Transfer characteristics : BT.709
Matrix coefficients : BT.709

Audio #1
ID : 2
Format : AC-3
Format/Info : Audio Coding 3
Mode extension : CM (complete main)
Format settings, Endianness : Big
Codec ID : A_AC3
Duration : 47mn 12s
Bit rate mode : Constant
Bit rate : 192 Kbps
Channel(s) : 2 channels
Channel positions : Front: L R
Sampling rate : 48.0 KHz
Compression mode : Lossy
Stream size : 64.8 MiB (4%)
Title : MVO - DniproFilm
Language : Ukrainian
Default : Yes
Forced : No

Audio #2
ID : 3
Format : E-AC-3
Format/Info : Audio Coding 3
Format settings, Endianness : Big
Codec ID : A_EAC3
Duration : 47mn 12s
Bit rate mode : Constant
Bit rate : 640 Kbps
Channel(s) : 6 channels
Channel positions : Front: L C R, Side: L R, LFE
Sampling rate : 48.0 KHz
Compression mode : Lossy
Stream size : 216 MiB (12%)
Language : English
Default : No
Forced : No

Text #1
ID : 4
Format : UTF-8
Codec ID : S_TEXT/UTF8
Codec ID/Info : UTF-8 Plain Text
Language : Ukrainian
Default : Yes
Forced : No

Text #2
ID : 5
Format : UTF-8
Codec ID : S_TEXT/UTF8
Codec ID/Info : UTF-8 Plain Text
Language : English
Default : No
Forced : No

Внимание! Раздача ведётся путём добавления новых серий; при каждом добавлении создаётся новый торрент.
Чтобы начать докачку новой серии, пользователям необходимо сделать следующее:
1. Остановить скачивание;
2. Удалить старый торрент у себя из клиента (старые серии удалять не надо);
3. Скачать новый торрент и запустить его у себя в клиенте вместо старого, при этом указать клиенту путь в старую папку куда и должно происходить скачивание новых серий. Ваш клиент при этом должен произвести хеширование (проверку) старой папки и будет докачивать только те серии, которых у вас ещё нет. Старые серии при этом не удаляются, а продолжают раздаваться! Eсли вы уже удалили старые серии, то предотвратить повторную закачку старых серий можно, отжав галочку в соответствующих местах при запуске нового торрента.
piratbit.org



Скачать Ходячие мертвецы: Мир за пределами через торрент https://img11.lostpic.net/2020/10/01/49c028756551e909b2c88d58852deb43.th.jpg Скачать фильм Ходячие мертвецы: Мир за пределами через торрент бесплантно в хорошем качестве Описание: Рассказ о жизни первого поколения, выросшего в захваченном зомби мире. Группа подростков отправится в путешествие, связанное с ... 10 10 7
Торрент: Зарегистрирован [2020-12-10 11:37] · скачан: 0 раз
Статус: √ проверено
Размер: 18.11 GB
Как cкачать? Как скачать Ходячие мертвецы: Мир за пределами через торрент | UTorrent

% Раздел Тема Автор DL S | L
Ходячие мертвецы (The Walking Dead) [ 6.61 GB ] Ходячие мертвецы: Мир за пределами / The Walking Dead: World Beyond / Сезон: 1 / Серии: 1-10 из 10 [2020 WEB-DLRip] MVO [NewStudio] bober100 Скачать
3 | 0
Ходячие мертвецы (The Walking Dead) [ 37.44 GB ] Ходячие мертвецы: Мир за пределами / The Walking Dead: World Beyond / Сезон: 1 / Серии: 1-10 из 10 [2020 WEB-DL 1080p] MVO [LostFilm] bober100 Скачать
1 | 0
Ходячие мертвецы (The Walking Dead) [ 19.24 GB ] Ходячие мертвецы: Мир за пределами / The Walking Dead: World Beyond / Сезон: 1 / Серии: 1-10 из 10 [2020 WEB-DL 720p] MVO [LostFilm] bober100 Скачать
2 | 0
Ходячие мертвецы (The Walking Dead) [ 36.6 GB ] Ходячие мертвецы: Мир за пределами / The Walking Dead: World Beyond / Сезон: 1 / Серии: 1-10 из 10 [2020 WEB-DL 1080p] [MVO] killermax2013 Скачать
1 | 0
Ходячие мертвецы (The Walking Dead) [ 17.76 GB ] Ходячие мертвецы: Мир за пределами / The Walking Dead: World Beyond / Сезон: 1 / Серии: 1-10 из 10 [2020 WEB-DL 720p] [DVO] killermax2013 Скачать
1 | 0


Последний раз редактировалось: killermax2013 (2020-12-10 11:36), всего редактировалось 8 раз(а)

28-11-2019 20:33  

Отключить всю рекламу на сайте

02-10-2020 08:35 Ходячие мертвецы: Мир за пределами Скачать торрент  

piratbit.org



11-10-2020 18:58 Ходячие мертвецы: Мир за пределами Скачать торрент  

1я серия норм!piratbit.org



12-10-2020 16:49 Ходячие мертвецы: Мир за пределами Скачать торрент  

Давайте 2-ю серию! Автору раздачи - респект и уважуха!piratbit.org



13-11-2020 18:04 Ходячие мертвецы: Мир за пределами Скачать торрент  

такого гівна я давно не бачив piratbit.org



    Дорогой пользователь! Огромная просьба, поблагодарите релизера, оцените раздачу и оставьте свои комментарий, если Вы скачали Ходячие мертвецы: Мир за пределами через торрент бесплатно! Внесите свою лепту в развитие PiratBit!
    Комментировать посты могут только пользователи прошедшие не сложную регистрацию
    Показать сообщения:    

    Ходячие мертвецы: Мир за пределами через торрент
    Скачать бесплатно Ходячие мертвецы: Мир за пределами
    Ходячие мертвецы: Мир за пределами скачать торрент
    Ходячие мертвецы: Мир за пределами смотреть онлайн
    Cкачать фильм Ходячие мертвецы: Мир за пределами бесплатно
    Ходячие мертвецы: Мир за пределами скачать торрент в хорошем качестве
    Ходячие мертвецы: Мир за пределами смотреть онлайн бесплатно в хорошем качестве


    Вы не можете начинать темы
    Вы не можете отвечать на сообщения
    Вы не можете редактировать свои сообщения
    Вы не можете удалять свои сообщения
    Вы не можете голосовать в опросах
    Вы не можете прикреплять файлы к сообщениям
    Вы можете скачивать файлы