2 сезон

iTunes

WEBRip

1

2 сезон

iTunes

1 сезон

1 сезон

RePack

30

Ultimate

ВАЖНО

ИГРА 18+

pack

RePack

MK11
pack

Легкие деньги

RePack

jed

RePack

fifa19

RePack

RDR2

RePack

NEED FOR SPEED™ PAYBACK

4 сезон

9 сезон

Бесстыжие 9 сезон

Все сериалы

все сериалы на PB.wtf

RePack

FAR CRY 5

Anonymous, добрый вечер, мы не успеваем собрать деньги на оплату серверов за февраль, помогите нам пожалуйста в это трудное время. В качестве благодарности мы отключим Вам всю рекламу на сайте (укажите свой ник в строку Ваше имя)!

×
  
Magnet ссылка

Южный Парк / South Park / сезон 24 / серии 00 из 10 (Трей Паркер, Мэтт Стоун, Эрик Сточ) [2020, мультфильм, комедия, сатира, WEBRip 720p] [Ukr MVO] (HDrezka Studio) piratbit.org

Южный Парк через торрент piratbit.org

Размер: 1.33 GB | Добавлен: 4 мес. 30 д. назад | Торрент скачан:32 раза
Скачать  

02-10-2020 16:27 Южный Парк Скачать торрент  

Южный Парк / South Park
Год выхода: 2020
Жанр: мультфильм, комедия, сатира
Страна: США
Продолжительность: 00:47:00
Перевод: Украинский (профессиональный, многоголосный) *HDrezka Studio*
Субтитры: украинские (forced), английские

Режиссер: Трей Паркер, Мэтт Стоун, Эрик Сточ

В ролях: Трей Паркер, Мэтт Стоун, Мона Маршалл, Айзек Хейз, Эйприл Стюарт, Элиза Шнайдер, Мэри Кэй Бергман, Эдриан Бирд, Дженнифер Хауэлл, Кайл Маккаллок и др.

Описание:
Южный Парк / South Park — американский мультсериал, созданный Мэттом Стоуном и Треем Паркером. Иногда название переводится также как «Саут-Парк» или «Саус-Парк». Выпускается кабельным телеканалом Comedy Central с 1997 года. Основу сюжета составляют приключения четырёх мальчиков и их друзей, живущих в маленьком городке Саут-Парк, штат Колорадо. Сериал высмеивает недостатки американской культуры и текущие мировые события, а также подвергает критике множество глубоких убеждений и табу посредством пародии и чёрного юмора. «Южный Парк» выходит поздно вечером и позиционируется как мультфильм для взрослых.

rating


Качество: WEBRip 720p
Формат: MKV
Видео: AVC, 1280x720 (16:9), 23.976 fps, ~2 990Kbps
Аудио Ukr: 48 kHz, AC3 Dolby Digital, 6 ch, ~384.00 kbps - HDrezka Studio
Аудио Eng: 48 kHz, AC3 Dolby Digital, 6 ch, ~640.00 kbps
General
Unique ID : 140973441398340617503769557834795569021 (0x6A0E7F497F73BE067AC8363E3A37CF7D)
Complete name : G:\South.Park.S24E00.WEBRip.720p.ukr.5.1.HDREZKA.STUDIO.mkv
Format : Matroska
Format version : Version 4
File size : 1.33 GiB
Duration : 47 min 35 s
Overall bit rate : 4 014 kb/s
Encoded date : UTC 2020-10-02 14:16:59
Writing application : mkvmerge v45.0.0 ('Heaven in Pennies') 64-bit
Writing library : libebml v1.3.10 + libmatroska v1.5.2

Video
ID : 1
Format : AVC
Format/Info : Advanced Video Codec
Format profile : Main@L4.1
Format settings : CABAC / 1 Ref Frames
Format settings, CABAC : Yes
Format settings, Reference : 1 frame
Format settings, GOP : M=1, N=30
Codec ID : V_MPEG4/ISO/AVC
Duration : 47 min 34 s
Bit rate : 2 990 kb/s
Width : 1 280 pixels
Height : 720 pixels
Display aspect ratio : 16:9
Frame rate mode : Constant
Frame rate : 23.976 (24000/1001) FPS
Color space : YUV
Chroma subsampling : 4:2:0
Bit depth : 8 bits
Scan type : Progressive
Bits/(Pixel*Frame) : 0.135
Stream size : 1 018 MiB (74%)
Language : English
Default : Yes
Forced : No

Audio #1
ID : 2
Format : AC-3
Format/Info : Audio Coding 3
Commercial name : Dolby Digital
Codec ID : A_AC3
Duration : 47 min 34 s
Bit rate mode : Constant
Bit rate : 384 kb/s
Channel(s) : 6 channels
Channel layout : L R C LFE Ls Rs
Sampling rate : 48.0 kHz
Frame rate : 31.250 FPS (1536 SPF)
Compression mode : Lossy
Stream size : 131 MiB (10%)
Language : Ukrainian
Service kind : Complete Main
Default : Yes
Forced : No

Audio #2
ID : 3
Format : AC-3
Format/Info : Audio Coding 3
Commercial name : Dolby Digital
Codec ID : A_AC3
Duration : 47 min 23 s
Bit rate mode : Constant
Bit rate : 640 kb/s
Channel(s) : 6 channels
Channel layout : L R C LFE Ls Rs
Sampling rate : 48.0 kHz
Frame rate : 31.250 FPS (1536 SPF)
Compression mode : Lossy
Delay relative to video : 11 s 0 ms
Stream size : 217 MiB (16%)
Language : English
Service kind : Complete Main
Default : No
Forced : No

Text #1
ID : 4
Format : UTF-8
Codec ID : S_TEXT/UTF8
Codec ID/Info : UTF-8 Plain Text
Duration : 45 min 20 s
Bit rate : 5 b/s
Count of elements : 31
Stream size : 1.91 KiB (0%)
Title : TEXT ONLY
Language : Ukrainian
Default : No
Forced : No

Text #2
ID : 5
Format : UTF-8
Codec ID : S_TEXT/UTF8
Codec ID/Info : UTF-8 Plain Text
Duration : 46 min 55 s
Bit rate : 104 b/s
Count of elements : 1076
Stream size : 36.0 KiB (0%)
Language : English
Default : No
Forced : No

скриншот  скриншот  скриншот  
Когда раздача ведётся путём добавления новых серий, при каждом добавлении создётся новый торрент. Чтобы начать докачку новой серии, пользователям необходимо сделать следующее:
(1) остановить скачивание,
(2) удалить старый торрент у себя из клиента (старые серии удалять не надо),
(3) скачать новый торрент и запустить его у себя в клиенте вместо старого, при этом указать клиенту путь в старую папку, куда и должно происходить скачивание новых серий.
Ваш клиент при этом должен произвести хеширование (проверку) старой папки (если не производит сам - помогите ему сделать это), и будет докачивать только те серии, которых у вас ещё нет. Старые серии при этом не удаляются, а продолжают раздаваться!
Eсли вы уже удалили старые серии, то предотвратить повторную закачку старых серий можно, отжав галочку в соответсвующих местах при запуске нового торрента. По возможности, желательно не удалять старые серии как можно дольше, чтобы релизёр не столько продолжал раздавать старые серии, а смог сконцентрироваться на новых.
piratbit.org



Скачать Южный Парк через торрент https://i114.fastpic.ru/big/2020/1002/25/e64ab4883888629e8b82fb830c18a825.jpeg Скачать фильм Южный Парк через торрент бесплантно в хорошем качестве Описание:Южный Парк / South Park — американский мультсериал, созданный Мэттом Стоуном и Треем Паркером. Иногда название переводится также ... 10 10 3
Торрент: Зарегистрирован [2020-10-02 16:27] · скачан: 32 раз
Статус: √ проверено
Размер: 1.33 GB
Как cкачать? Как скачать Южный Парк через торрент | UTorrent

28-11-2019 20:33  

Отключить всю рекламу на сайте

    Дорогой пользователь! Огромная просьба, поблагодарите релизера, оцените раздачу и оставьте свои комментарий, если Вы скачали Южный Парк через торрент бесплатно! Внесите свою лепту в развитие PiratBit!
    Комментировать посты могут только пользователи прошедшие не сложную регистрацию
    Показать сообщения:    

    Южный Парк через торрент
    Скачать бесплатно Южный Парк
    Южный Парк скачать торрент
    Южный Парк смотреть онлайн
    Cкачать фильм Южный Парк бесплатно
    Южный Парк скачать торрент в хорошем качестве
    Южный Парк смотреть онлайн бесплатно в хорошем качестве


    Вы не можете начинать темы
    Вы не можете отвечать на сообщения
    Вы не можете редактировать свои сообщения
    Вы не можете удалять свои сообщения
    Вы не можете голосовать в опросах
    Вы не можете прикреплять файлы к сообщениям
    Вы можете скачивать файлы