Достать ножи: Стеклянная луковица

MVO

Добыча

Дубляж

Уэнсдэй

1 сезон

Тор

Дубляж

13 клиническая

1 сезон

Жестокая ночь

MVO

Одни из нас

1 сезон

Deluxe

pack

Рекомендуем

30

Пиратка

ВАЖНО

ВАЖНО

Ghostwire

Пиратка

jed

RePack

nioh2

RePack

RDR2

RePack

NEED FOR SPEED™ PAYBACK

RePack

скачать торрент

Кинопоиск HD

Острые козырьки 6 сезон

6 сезон

FAR CRY 6

RePack

скачать торрент

Лицензия

скачать торрент

MVO

1

1 сезон

скачать торрент

1 сезон

скачать торрент

Лицензия

  

300 Спартанцев / 300 (Зак Снайдер) [2006, Боевик, драма, военный, исторический, UHD BDRemux 2160p] Дубляж [Лицензия] +DVO+2xAVO+MVO (ukr)

300 Спартанцев через торрент piratbit.org

Размер: 56.14 GB | Добавлен: 2 года 3 мес. назад | Торрент скачан:68 раз
Смотреть онлайн | Скачать | Поддержите нас   

03-10-2020 04:56 300 Спартанцев Скачать торрент  

300 Спартанцев | 300
Год выпуска: 2006
Страна: США
Студия: Atmosphere Entertainment MM LLC, Hollywood Gang Productions
Жанр: Боевик, драма, военный, исторический
Продолжительность: 01:56:38
Перевод(ы):
#1: Дублированный | Лицензия
#2: Профессиональный двухголосый | П.Гланц и И.Королёва
#3: Авторский | Рябов
#4: Авторский | Есарев
Субтитры: Русские (full), украинские (Full), английские

Режиссер: Зак Снайдер

rating

В ролях: Джерард Батлер, Лина Хиди, Доминик Уэст, Дэвид Уэнэм, Винсент Риган, Майкл Фассбендер, Том Уисдом, Эндрю Плевин, Эндрю Тирнан, Родриго Санторо, Джованни Симмино, Стивен МакХэтти, Грег Крамер, Алекс Ивановичи, Келли Крэйг, Эли Снайдер, Тайлер Макс Нитцель, Тим Коннолли, Мари-Джули Ривест, Себастьян Ст. Джермейн, Питер Менса, Артур Холден, Майкл Синельников, Джон Данн-Хилл, Дэннис Ст Джон, Нил Напье, Дилан Смит, Маурицио Терраззано, Роберт Паради, Кваси Сонгуи

Описание: События картины повествуют о кровопролитной битве при Фермопилах в 480 году до н.э., в которой триста отважных спартанцев во главе со своим царем Леонидом преградили путь многотысячной армии персидского царя Ксеркса. Несмотря на численный перевес персов, спартанцы продолжали упорную оборону, проявив мужество и отвагу. Их бесстрашие и героизм вдохновили всю Грецию на объединение против непобедимого врага, переломив тем самым ход Греко-персидских войн…

Качество: UHD BDRemux 2160p
Формат: MKV

Видео: 3840x2160 at 23.976 fps, MPEG-H HEVC HDR Video, 59800 kbps avg
Аудио #01: 48 kHz, AC3, 5.1, 448 Kbps | Лицензия | RUS |
Аудио #02: 48 kHz, DTS, 5.1, 1510 Kbps | П.Гланц и И.Королёва | RUS |
Аудио #03: 48 kHz, DTS, 5.1, 755 Kbps | Рябов | RUS |
Аудио #04: 48 kHz, DTS-HD MA, 5.1, 2330 Kbps | Есарев | RUS |
Аудио #05: 48 kHz, AC3, 2.0, 256 Kbps | 1+1 | UKR |
Аудио #06: 48 kHz, TrueHD, 7.1, 3343 Kbps | Оригинал | ENG |
Аудио #07: 48 kHz, AC3, 5.1, 448 Kbps | Оригинал | ENG |
скриншот  скриншот  скриншот  скриншот  скриншот  

General
Unique ID: 197163980500687661580475817530718429335 (0x945466C227F00626F0959C8831102097)
Complete name: D:Video111300.2006.BDREMUX.2160p.HDR.seleZen.mkv
Format: Matroska
Format version: Version 4
File size: 56.1 GiB
Duration: 1 h 56 min
Overall bit rate mode: Variable
Overall bit rate: 68.9 Mb/s
Movie name: 300 2006 4ЛK UHD from селезень
Encoded date: UTC 2020-10-03 04:14:38
Writing application: mkvmerge v40.0.0 ('Old Town Road + Pony') 64-bit
Writing library: libebml v1.3.9 + libmatroska v1.5.2

Video
ID: 1
Format: HEVC
Format/Info: High Efficiency Video Coding
Format profile: Main 10@L5.1@High
HDR format: SMPTE ST 2086, HDR10 compatible
Codec ID: V_MPEGH/ISO/HEVC
Duration: 1 h 56 min
Bit rate: 59.8 Mb/s
Width: 3 840 pixels
Height: 2 160 pixels
Display aspect ratio: 16:9
Frame rate mode: Constant
Frame rate: 23.976 (24000/1001) FPS
Color space: YUV
Chroma subsampling: 4:2:0 (Type 2)
Bit depth: 10 bits
Bits/(Pixel*Frame): 0.300
Stream size: 48.7 GiB (87%)
Writing library: ATEME Titan File 3.9.6 (4.9.6.2)
Language: English
Default: Yes
Forced: No
Color range: Limited
Color primaries: BT.2020
Transfer characteristics: PQ
Matrix coefficients: BT.2020 non-constant
Mastering display color pri: Display P3
Mastering display luminance: min: 0.0001 cd/m2, max: 1000 cd/m2
Maximum Content Light Level: 439 cd/m2
Maximum Frame-Average Light: 106 cd/m2

Audio #1
ID: 2
Format: AC-3
Format/Info: Audio Coding 3
Commercial name: Dolby Digital
Codec ID: A_AC3
Duration: 1 h 56 min
Bit rate mode: Constant
Bit rate: 448 kb/s
Channel(s): 6 channels
Channel layout: L R C LFE Ls Rs
Sampling rate: 48.0 kHz
Frame rate: 31.250 FPS (1536 SPF)
Compression mode: Lossy
Stream size: 374 MiB (1%)
Title: Дубляж [License]
Language: Russian
Service kind: Complete Main
Default: Yes
Forced: Yes

Audio #2
ID: 3
Format: DTS
Format/Info: Digital Theater Systems
Codec ID: A_DTS
Duration: 1 h 56 min
Bit rate mode: Constant
Bit rate: 1 510 kb/s
Channel(s): 6 channels
Channel layout: C L R Ls Rs LFE
Sampling rate: 48.0 kHz
Frame rate: 93.750 FPS (512 SPF)
Bit depth: 24 bits
Compression mode: Lossy
Stream size: 1.23 GiB (2%)
Title: DVO [П.Гланц и И.Королёва]
Language: Russian
Default: No
Forced: No

Audio #3
ID: 4
Format: DTS
Format/Info: Digital Theater Systems
Codec ID: A_DTS
Duration: 1 h 56 min
Bit rate mode: Constant
Bit rate: 755 kb/s
Channel(s): 6 channels
Channel layout: C L R Ls Rs LFE
Sampling rate: 48.0 kHz
Frame rate: 93.750 FPS (512 SPF)
Bit depth: 24 bits
Compression mode: Lossy
Stream size: 629 MiB (1%)
Title: AVO [Рябов]
Language: Russian
Default: No
Forced: No

Audio #4
ID: 5
Format: DTS XLL
Format/Info: Digital Theater Systems
Commercial name: DTS-HD Master Audio
Codec ID: A_DTS
Duration: 1 h 56 min
Bit rate mode: Variable
Bit rate: 2 330 kb/s
Channel(s): 6 channels
Channel layout: C L R Ls Rs LFE
Sampling rate: 48.0 kHz
Frame rate: 93.750 FPS (512 SPF)
Bit depth: 16 bits
Compression mode: Lossless
Stream size: 1.90 GiB (3%)
Title: AVO [Есарев]
Language: Russian
Default: No
Forced: No

Audio #5
ID: 6
Format: AC-3
Format/Info: Audio Coding 3
Commercial name: Dolby Digital
Codec ID: A_AC3
Duration: 1 h 56 min
Bit rate mode: Constant
Bit rate: 256 kb/s
Channel(s): 2 channels
Channel layout: L R
Sampling rate: 48.0 kHz
Frame rate: 31.250 FPS (1536 SPF)
Compression mode: Lossy
Stream size: 213 MiB (0%)
Title: MVO [1+1]
Language: Ukrainian
Service kind: Complete Main
Default: No
Forced: No

Audio #6
ID: 7
Format: MLP FBA 16-ch
Format/Info: Meridian Lossless Packing FBA with 16-channel presentation
Commercial name: Dolby TrueHD with Dolby Atmos
Codec ID: A_TRUEHD
Duration: 1 h 56 min
Bit rate mode: Variable
Bit rate: 3 343 kb/s
Maximum bit rate: 5 451 kb/s
Channel(s): 8 channels
Channel layout: L R C LFE Ls Rs Lb Rb
Sampling rate: 48.0 kHz
Frame rate: 1 200.000 FPS (40 SPF)
Compression mode: Lossless
Stream size: 2.72 GiB (5%)
Title: Original
Language: English
Default: No
Forced: No
Number of dynamic objects: 11
Bed channel count: 1 channel
Bed channel configuration: LFE

Audio #7
ID: 8
Format: AC-3
Format/Info: Audio Coding 3
Commercial name: Dolby Digital
Codec ID: A_AC3
Duration: 1 h 56 min
Bit rate mode: Constant
Bit rate: 448 kb/s
Channel(s): 6 channels
Channel layout: L R C LFE Ls Rs
Sampling rate: 48.0 kHz
Frame rate: 31.250 FPS (1536 SPF)
Compression mode: Lossy
Stream size: 374 MiB (1%)
Language: English
Service kind: Complete Main
Default: No
Forced: No

Text #1
ID: 9
Format: UTF-8
Codec ID: S_TEXT/UTF8
Codec ID/Info: UTF-8 Plain Text
Duration: 1 h 55 min
Bit rate: 70 b/s
Count of elements: 1008
Stream size: 59.3 KiB (0%)
Title: Full
Language: Russian
Default: No
Forced: No

Text #2
ID: 10
Format: UTF-8
Codec ID: S_TEXT/UTF8
Codec ID/Info: UTF-8 Plain Text
Duration: 1 h 55 min
Bit rate: 62 b/s
Count of elements: 965
Stream size: 53.1 KiB (0%)
Title: Full
Language: Ukrainian
Default: No
Forced: No

Text #3
ID: 11
Format: UTF-8
Codec ID: S_TEXT/UTF8
Codec ID/Info: UTF-8 Plain Text
Duration: 1 h 47 min
Bit rate: 40 b/s
Count of elements: 945
Stream size: 32.2 KiB (0%)
Title: Full
Language: English
Default: No
Forced: No

Menu
00:00:00.000: en:Spartan Education
00:05:16.608: en:Messenger From Persia
00:10:22.956: en:Sparta's Reply
00:13:16.421: en:The Ephors
00:16:51.844: en:The Oracle
00:19:44.016: en:What Should A Free Man Do?
00:22:27.972: en:With Or On Your Shield
00:27:03.288: en:More Soldiers Than You
00:29:15.921: en:Hunters Of Men's Souls
00:33:17.495: en:Glorious Rain
00:35:06.438: en:Fraction Of The Monster
00:37:49.100: en:Wall Of The Dead
00:40:45.943: en:Ephialtes' Request
00:44:09.981: en:Hot Gates Battle
00:49:16.871: en:Today No Spartan Dies
00:52:45.996: en:Make Theron Your Ally
00:55:33.247: en:Meeting Xerxes
01:01:40.530: en:Immortals Put To The Test
01:05:20.416: en:Über Immortal's Fall
01:08:42.618: en:Numbers Count For Nothing
01:12:42.858: en:Blood-Drunk
01:15:50.045: en:Betrayer's Bargain
01:18:38.047: en:Queen's Bargain
01:22:20.602: en:Prepare For Glory
01:26:43.198: en:Tell Them Our Story
01:29:11.179: en:Trickster In True Form
01:33:58.883: en:Victory In Surrender
01:38:54.262: en:Fallen Heroes
01:43:25.866: en:Go Tell The Spartans
01:49:03.203: en:End Credits




Скачать 300 Спартанцев через торрент https://b.radikal.ru/b36/2010/51/ccec7491b509.jpg Скачать, смотреть онлайн 300 Спартанцев бесплантно в хорошем качестве Описание: События картины повествуют о кровопролитной битве при Фермопилах в 480 году до н.э., в которой триста отважных спартанцев во ... 9.3 10 8
Торрент: Зарегистрирован [2020-10-03 04:56] · скачан: 68 раз
Статус: √ проверено
Размер: 56.14 GB
Как cкачать? Как скачать 300 Спартанцев через торрент | UTorrent

% Раздел Тема Автор DL S | L
Фильмы (HD 720p, 1080p) (48-60 fps) [ 5.5 GB ] 300 Спартанцев / 300 | Дубляж BD CEE | 720p / 60 FPS BD CEE slaventi-69 Скачать
2 | 2
Фильмы [HD 720p, 1080p] (Хороший звук DUB, MVO) [ 9.54 GB ] 300 спартанцев / 300 | Лицензия | 1080p, HEVC, Дубляж (Лицензия Мичман37 Скачать
1 | 0
Фильмы [HD 720p, 1080p] (Хороший звук DUB, MVO) [ 7.43 GB ] 300 спартанцев / 300 | Дубляж + Оригинал | 1080p, Дубляж + Оригинал slaventi-69 Скачать
1 | 0
Фильмы 2006-2008 [ 1.47 GB ] 300 спартанцев / 300 | | HDRip, лицензия Lil Badun Скачать
1 | 0
Фильмы 2006-2008 [ 2.06 GB ] 300 спартанцев / 300 | | HDRip toxa1 Скачать
1 | 0
Фильмы [HD 720p, 1080p] (Хороший звук DUB, MVO) [ 11.15 GB ] 300 спартанцев / 300 | | 1080p Anonymous Скачать
1 | 0
Фильмы 2006-2008 [ 744 MB ] 300 спартанцев / 300 | | HDRip Venxxx Скачать
1 | 0

28-11-2019 20:33  


Отключить вcю реклaмy на сайте, в т.ч. и в плеере онлайн просмотра!

    Дорогой пользователь! Огромная просьба, поблагодарите релизера, оцените раздачу и оставьте свои комментарий, если Вы скачали 300 Спартанцев через торрент бесплатно!!
    Комментировать посты могут только пользователи прошедшие не сложную регистрацию
    Показать сообщения:    


    300 Спартанцев через торрент
    Скачать бесплатно 300 Спартанцев
    300 Спартанцев скачать торрент
    300 Спартанцев смотреть онлайн
    Cкачать фильм 300 Спартанцев бесплатно
    300 Спартанцев скачать торрент в хорошем качестве
    300 Спартанцев смотреть онлайн бесплатно в хорошем качестве
    Вы не можете начинать темы
    Вы не можете отвечать на сообщения
    Вы не можете редактировать свои сообщения
    Вы не можете удалять свои сообщения
    Вы не можете голосовать в опросах
    Вы не можете прикреплять файлы к сообщениям
    Вы можете скачивать файлы
    300 Спартанцев / 300 [2006, Боевик, драма, военный, исторический, UHD BDRemux 2160p] Дубляж [Лицензия] +DVO+2xAVO+MVO смотреть онлайн, скачать торрент picoco.icu