Ссылка на приватное зеркало нашего сайта всего за 1$. Внимание количество ограничено!!!

2 сезон

iTunes

1 сезон

1

2 сезон

2 сезон

iTunes

1 сезон

RePack

30

Новинка

ВАЖНО

ИГРА 18+

pack

RePack

MK11
pack

Забери бонус

RePack

jed

!!Акция!!

Alien_Rage

RePack

fifa19

RePack

Assassins Creed: Odyssey

RePack

NEED FOR SPEED™ PAYBACK

4 сезон

9 сезон

Бесстыжие 9 сезон

Все сериалы

все сериалы на PB.wtf

RePack

FAR CRY 5
  

Южный парк / South Park / Сезон: 24 / Серии: 0- из 10 (Трей Паркер, Мэтт Стоун, Эрик Сточ) [2020, мультфильм, комедия, сатира, WEB-DL 1080p] MVO [Jaskier] piratbit.org

Южный парк через торрент piratbit.org

Раздают: 3 [ 0.9 KB/s ]
Размер: 2.99 GB | Добавлен: 1 мес. 25 д. назад | Торрент скачан:62 раза
Скачать  

03-10-2020 18:05 Южный парк Скачать торрент  

✦ Южный Парк ✦
✦ Год выпуска: 2020
✦ Страна: США
✦ Студия: Comedy Central, South Park Studios
✦ Жанр: мультфильм, комедия, сатира
✦ Продолжительность: ~ 00:23:00
✦ Перевод: Профессиональный (многоголосый) | Jaskier
✦ Субтитры: Английские

✦ Режиссер: Трей Паркер, Мэтт Стоун, Эрик Сточ

rating

В ролях: Трей Паркер, Мэтт Стоун, Мона Маршалл, Айзек Хейз, Эйприл Стюарт, Элиза Шнайдер, Мэри Кэй Бергман, Эдриан Бирд, Дженнифер Хауэлл, Кайл Маккаллок и др.

Описание: Южный Парк / South Park — американский мультсериал, созданный Мэттом Стоуном и Треем Паркером. Иногда название переводится также как «Саут-Парк» или «Саус-Парк». Выпускается кабельным телеканалом Comedy Central с 1997 года. Основу сюжета составляют приключения четырёх мальчиков и их друзей, живущих в маленьком городке Саут-Парк, штат Колорадо. Сериал высмеивает недостатки американской культуры и текущие мировые события, а также подвергает критике множество глубоких убеждений и табу посредством пародии и чёрного юмора. «Южный Парк» выходит поздно вечером и позиционируется как мультфильм для взрослых.

✦ Качество: WEB-DL 1080p
✦ Формат: x264 | MKV

✦ Видео: ~ 8100 kb/s, 1920x1080
✦ Аудио#1 RU: AC3, 6 ch, 384 kbps
✦ Аудио#2 EN: AC3, 6 ch, 384 kbps
скриншот  скриншот  скриншот  

Общее
Уникальный идентификатор : 195860116994973237118977576124735979881 (0x935949530791A0D8A091BFE357028169)
Полное имя : C:\South Park. Season 24 (WEB-DL l 1080p l Jaskier)\South.Park.S24E00.1080p.WEB-DL.DD5.1.H.264-Jaskier.mkv
Формат : Matroska
Версия формата : Version 2
Размер файла : 2,99 Гбайт
Продолжительность : 47 м. 26 с.
Режим общего битрейта : Переменный
Общий поток : 9016 Кбит/сек
Дата кодирования : UTC 2020-10-03 16:57:07
Программа кодирования : mkvmerge v7.8.0 ('River Man') 32bit built on Apr 3 2015 12:11:22
Библиотека кодирования : libebml v1.3.1 + libmatroska v1.4.2

Видео
Идентификатор : 1
Формат : AVC
Формат/Информация : Advanced Video Codec
Профиль формата : High@L4
Настройки формата : CABAC / 4 Ref Frames
Параметр CABAC формата : Да
Параметр RefFrames формата : 4 кадра
Идентификатор кодека : V_MPEG4/ISO/AVC
Продолжительность : 47 м. 26 с.
Вид битрейта : Переменный
Битрейт : 8068 Кбит/сек
Максимальный битрейт : 12,4 Мбит/сек
Ширина : 1920 пикселей
Высота : 1080 пикселей
Соотношение сторон : 16:9
Режим частоты кадров : Постоянный
Частота кадров : 23,976 (24000/1001) кадра/сек
Цветовое пространство : YUV
Субдискретизация насыщенности : 4:2:0
Битовая глубина : 8 бит
Тип развёртки : Прогрессивная
Бит/(Пиксели*Кадры) : 0.162
Размер потока : 2,67 Гбайт (89%)
Язык : English
Default : Да
Forced : Нет
Цветовой диапазон : Limited
Основные цвета : BT.709
Характеристики трансфера : BT.709
Коэффициенты матрицы : BT.709

Аудио #1
Идентификатор : 2
Формат : AC-3
Формат/Информация : Audio Coding 3
Коммерческое название : Dolby Digital
Идентификатор кодека : A_AC3
Продолжительность : 47 м. 26 с.
Вид битрейта : Постоянный
Битрейт : 384 Кбит/сек
Каналы : 6 каналов
ChannelLayout : L R C LFE Ls Rs
Частота : 48,0 КГц
Частота кадров : 31,250 кадров/сек (1536 SPF)
Битовая глубина : 16 бит
Метод сжатия : С потерями
Размер потока : 130 Мбайт (4%)
Заголовок : Jaskier
Язык : Russian
ServiceKind/String : Complete Main
Default : Да
Forced : Нет

Аудио #2
Идентификатор : 3
Формат : AC-3
Формат/Информация : Audio Coding 3
Коммерческое название : Dolby Digital
Идентификатор кодека : A_AC3
Продолжительность : 47 м. 26 с.
Вид битрейта : Постоянный
Битрейт : 384 Кбит/сек
Каналы : 6 каналов
ChannelLayout : L R C LFE Ls Rs
Частота : 48,0 КГц
Частота кадров : 31,250 кадров/сек (1536 SPF)
Битовая глубина : 16 бит
Метод сжатия : С потерями
Размер потока : 130 Мбайт (4%)
Язык : English
ServiceKind/String : Complete Main
Default : Нет
Forced : Нет

Текст
Идентификатор : 4
Формат : UTF-8
Идентификатор кодека : S_TEXT/UTF8
Идентификатор кодека/Информация : UTF-8 Plain Text
Язык : English
Default : Нет
Forced : Нет

Когда раздача ведётся путём добавления новых серий, при каждом добавлении создётся новый торрент. Чтобы начать докачку новой серии, пользователям необходимо сделать следующее:
(1) остановить скачивание,
(2) удалить старый торрент у себя из клиента (старые серии удалять не надо),
(3) скачать новый торрент и запустить его у себя в клиенте вместо старого, при этом указать клиенту путь в старую папку, куда и должно происходить скачивание новых серий.
Ваш клиент при этом должен произвести хеширование (проверку) старой папки (если не производит сам - помогите ему сделать это), и будет докачивать только те серии, которых у вас ещё нет. Старые серии при этом не удаляются, а продолжают раздаваться!
Eсли вы уже удалили старые серии, то предотвратить повторную закачку старых серий можно, отжав галочку в соответсвующих местах при запуске нового торрента. По возможности, желательно не удалять старые серии как можно дольше, чтобы релизёр не столько продолжал раздавать старые серии, а смог сконцентрироваться на новых.
piratbit.org



Скачать Южный парк через торрент https://i114.fastpic.ru/big/2020/1003/0c/cf82c416538a2f6e94f2718e760db40c.png Скачать фильм Южный парк через торрент бесплантно в хорошем качестве Описание: Южный Парк / South Park — американский мультсериал, созданный Мэттом Стоуном и Треем Паркером. Иногда название переводится также ... 10 10 2
Торрент: Зарегистрирован [2020-10-03 18:05] · скачан: 62 раз
Статус: √ проверено
Размер: 2.99 GB
Как cкачать? Как скачать Южный парк через торрент | qTorrent

% Раздел Тема Автор DL S | L
Мультсериалы [ 1.38 GB ] Южный парк / South Park / Сезон: 24 / Серии: 0- из 10 [2020 мультфильм сатира WEB-DL 720p] MVO [Jaskier] bober100 Скачать
3 | 0
Мультсериалы [ 568 MB ] Южный парк / South Park / Сезон: 24 / Серии: 0- из 10 [2020 мультфильм сатира WEB-DLRip] MVO [Jaskier] bober100 Скачать
1 | 0

28-11-2019 20:33  

Отключить всю рекламу на сайте

16-11-2020 11:26 Южный парк Скачать торрент  

piratbit.org



    Дорогой пользователь! Огромная просьба, поблагодарите релизера, оцените раздачу и оставьте свои комментарий, если Вы скачали Южный парк через торрент бесплатно! Внесите свою лепту в развитие PiratBit!
    Комментировать посты могут только пользователи прошедшие не сложную регистрацию
    Показать сообщения:    

    Южный парк через торрент
    Скачать бесплатно Южный парк
    Южный парк скачать торрент
    Южный парк смотреть онлайн
    Cкачать фильм Южный парк бесплатно
    Южный парк скачать торрент в хорошем качестве
    Южный парк смотреть онлайн бесплатно в хорошем качестве


    Вы не можете начинать темы
    Вы не можете отвечать на сообщения
    Вы не можете редактировать свои сообщения
    Вы не можете удалять свои сообщения
    Вы не можете голосовать в опросах
    Вы не можете прикреплять файлы к сообщениям
    Вы можете скачивать файлы