Ссылка на приватное зеркало нашего сайта всего за 1$. Внимание количество ограничено!!!

2 сезон

iTunes

1 сезон

1

iTunes

iTunes

iTunes

1 сезон

RePack

30

ИГРА 18+

pack

ВАЖНО

!!Акция!!

Alien_RageХит недели

RePack

MK11
pack

Забери бонус

RePack

jed

!!Акция!!

Alien_Rage

RePack

fifa19

RePack

Assassins Creed: Odyssey

RePack

NEED FOR SPEED™ PAYBACK

4 сезон

9 сезон

Бесстыжие 9 сезон

Все сериалы

все сериалы на PB.wtf

RePack

FAR CRY 5
  

Древнейшая профессия в мире / Le plus vieux métier du monde (Клод Отан-Лара, Мауро Болоньини, Филипп де Брока, Жан-Люк Годар) [1967, драма, комедия, BDRip 1080p] [DVO] (Светла) piratbit.org

Древнейшая профессия в мире через торрент piratbit.org

Раздают: 1 [ 0 KB/s ]
Размер: 12.72 GB | Добавлен: 20 д. назад | Торрент скачан:28 раз
Скачать  

04-10-2020 08:05 Древнейшая профессия в мире Скачать торрент  

Древнейшая профессия в мире / Le plus vieux métier du monde

Год выхода: 1967
Страна: Франция, Германия (ФРГ), Италия
Студия: Athos Films, Franco London Films, Francoriz Production
Продолжительность: 01:55:57
Жанр: драма, комедия,
Перевод: Профессиональный (двухголосый, закадровый) Светла
Субтитры: английские

Режиссер: Клод Отан-Лара, Мауро Болоньини, Филипп де Брока, Жан-Люк Годар

В ролях: Мишель Мерсье, Энрико Мария Салерно, Габриэле Тинти, Эльза Мартинелли, Гастоне Москин, Джанкарло Кобелли, Жанна Моро, Катрин Сами, Жан-Клод Бриали, Жан Ришар, Рэкел Уэлч, Мартин Хельд, Зигфрид Шюренберг, Тилли Лауэнштайн, Надя Грей, Марилу Толо, Анна Карина...

О фильме: Шесть новелл, в комедийной форме рассказывающих об истории проституции с древних времен до наших дней.…

rating

Качество: BDRip 1080p
Формат: MKV
Видео: x264, 1792x1080 , 14000 kbps, 23,976 fps
Аудио #1: AC-3, 2 ch, 192 kbps (Rus) - DVO Светла
Аудио #2: DTS, 2 ch, 1509 kbps (Fre)
x264 [info]: frame I:861 Avg QP:17.11 size:203863
x264 [info]: frame P:33071 Avg QP:19.26 size:109783
x264 [info]: frame B:132872 Avg QP:21.63 size: 62997
x264 [info]: consecutive B-frames: 1.2% 1.4% 7.8% 11.0% 14.2% 54.6% 3.5% 1.0% 1.4% 0.6% 0.6% 1.8% 0.3% 0.2% 0.3%

Общее
Уникальный идентификатор : 171934189119810424634966696202342918763 (0x815952011474E4A9A17FBE04CB066A6B)
Полное имя : Древнейшая профессия в мире (Le plus vieux métier du monde) 1967 BDRip 1080p.mkv
Формат : Matroska
Версия формата : Version 2
Размер файла : 12,7 Гбайт
Продолжительность : 1 ч. 55 м.
Общий поток : 15,7 Мбит/сек
Дата кодирования : UTC 2020-10-03 18:02:34
Программа кодирования : mkvmerge v4.0.0 ('The Stars were mine') сборка от Jun 6 2010 16:18:42
Библиотека кодирования : libebml v1.0.0 + libmatroska v1.0.0

Видео
Идентификатор : 1
Формат : AVC
Формат/Информация : Advanced Video Codec
Профиль формата : High@L4.1
Параметр CABAC формата : Да
Параметр ReFrames формата : 4 кадра
Идентификатор кодека : V_MPEG4/ISO/AVC
Продолжительность : 1 ч. 55 м.
Битрейт : 14,0 Мбит/сек
Ширина : 1792 пикселя
Высота : 1080 пикселей
Соотношение сторон : 5:3
Режим частоты кадров : Постоянный
Частота кадров : 23,976 (24000/1001) кадра/сек
Цветовое пространство : YUV
Субдискретизация насыщенности : 4:2:0
Битовая глубина : 8 бит
Тип развёртки : Прогрессивная
Бит/(Пиксели*Кадры) : 0.302
Размер потока : 11,1 Гбайт (87%)
Библиотека кодирования : x264 core 146 r2538 121396c
Настройки программы : cabac=1 / ref=4 / deblock=1:-1:-1 / analyse=0x3:0x133 / me=umh / subme=11 / psy=1 / psy_rd=1.00:0.00 / mixed_ref=1 / me_range=32 / chroma_me=1 / trellis=2 / 8x8dct=1 / cqm=0 / deadzone=21,11 / fast_pskip=0 / chroma_qp_offset=-2 / threads=12 / lookahead_threads=2 / sliced_threads=0 / nr=0 / decimate=0 / interlaced=0 / bluray_compat=0 / constrained_intra=0 / bframes=14 / b_pyramid=2 / b_adapt=2 / b_bias=0 / direct=3 / weightb=1 / open_gop=0 / weightp=2 / keyint=240 / keyint_min=23 / scenecut=40 / intra_refresh=0 / rc=2pass / mbtree=0 / bitrate=14000 / ratetol=1.0 / qcomp=0.60 / qpmin=0 / qpmax=69 / qpstep=4 / cplxblur=20.0 / qblur=0.5 / ip_ratio=1.40 / pb_ratio=1.30 / aq=3:0.80
Язык : French
Default : Нет
Forced : Нет

Аудио #1
Идентификатор : 2
Формат : AC-3
Формат/Информация : Audio Coding 3
Расширение режима : CM (complete main)
Параметр Endianness формата : Big
Идентификатор кодека : A_AC3
Продолжительность : 1 ч. 55 м.
Вид битрейта : Постоянный
Битрейт : 192 Кбит/сек
Каналы : 2 канала
Расположение каналов : Front: L R
Частота : 48,0 КГц
Частота кадров : 31,250 кадров/сек (1536 spf)
Метод сжатия : С потерями
Размер потока : 159 Мбайт (1%)
Заголовок : DVO Светла
Язык : Russian
Default : Нет
Forced : Нет

Аудио #2
Идентификатор : 3
Формат : DTS
Формат/Информация : Digital Theater Systems
Режим : 16
Параметр Endianness формата : Big
Идентификатор кодека : A_DTS
Продолжительность : 1 ч. 55 м.
Вид битрейта : Постоянный
Битрейт : 1509 Кбит/сек
Каналы : 2 канала
Расположение каналов : Front: L R
Частота : 48,0 КГц
Частота кадров : 93,750 кадра/сек (512 spf)
Битовая глубина : 24 бит
Метод сжатия : С потерями
Размер потока : 1,22 Гбайт (10%)
Язык : French
Default : Нет
Forced : Нет

Текст
Идентификатор : 4
Формат : UTF-8
Идентификатор кодека : S_TEXT/UTF8
Идентификатор кодека/Информация : UTF-8 Plain Text
Язык : English
Default : Нет
Forced : Нет

Меню
00:00:00.000 : fr:Chapter 01
00:12:17.528 : fr:Chapter 02
00:19:38.719 : fr:Chapter 03
00:37:11.187 : fr:Chapter 04
00:43:11.047 : fr:Chapter 05
00:55:19.483 : fr:Chapter 06
01:05:32.971 : fr:Chapter 07
01:15:36.699 : fr:Chapter 08
01:35:31.684 : fr:Chapter 09
01:45:12.264 : fr:Chapter 10
скриншот  скриншот  скриншот  скриншот  скриншот  скриншот  
piratbit.org



Скачать Древнейшая профессия в мире через торрент https://s019.radikal.ru//i624/1605/f5/2c3665d9f8be.jpg Скачать фильм Древнейшая профессия в мире через торрент бесплантно в хорошем качестве О фильме: Шесть новелл, в комедийной форме рассказывающих об истории проституции с древних времен до наших дней.… ... 9.8 10 5
Торрент: Зарегистрирован [2020-10-04 08:05] · скачан: 28 раз
Статус: √ проверено
Размер: 12.72 GB
Как cкачать? Как скачать Древнейшая профессия в мире через торрент | qTorrent

28-11-2019 20:33  

Отключить всю рекламу на сайте

04-10-2020 08:46 Древнейшая профессия в мире Скачать торрент  

думал про депутатов, хотя это одно и тоже, но от проституток пользы больше piratbit.org



04-10-2020 09:47 Древнейшая профессия в мире Скачать торрент  

всех шлю в депутаты,они хоть всем чегонибудь да дадут =)piratbit.org



    Дорогой пользователь! Огромная просьба, поблагодарите релизера, оцените раздачу и оставьте свои комментарий, если Вы скачали Древнейшая профессия в мире через торрент бесплатно! Внесите свою лепту в развитие PiratBit!
    Комментировать посты могут только пользователи прошедшие не сложную регистрацию
    Показать сообщения:    

    Древнейшая профессия в мире через торрент
    Скачать бесплатно Древнейшая профессия в мире
    Древнейшая профессия в мире скачать торрент
    Древнейшая профессия в мире смотреть онлайн
    Cкачать фильм Древнейшая профессия в мире бесплатно
    Древнейшая профессия в мире скачать торрент в хорошем качестве
    Древнейшая профессия в мире смотреть онлайн бесплатно в хорошем качестве


    Вы не можете начинать темы
    Вы не можете отвечать на сообщения
    Вы не можете редактировать свои сообщения
    Вы не можете удалять свои сообщения
    Вы не можете голосовать в опросах
    Вы не можете прикреплять файлы к сообщениям
    Вы можете скачивать файлы