2 сезон

iTunes

WEBRip

1

2 сезон

iTunes

1 сезон

1 сезон

RePack

30

Ultimate

ВАЖНО

ИГРА 18+

pack

RePack

MK11
pack

Легкие деньги

RePack

jed

RePack

fifa19

RePack

RDR2

RePack

NEED FOR SPEED™ PAYBACK

4 сезон

9 сезон

Бесстыжие 9 сезон

Все сериалы

все сериалы на PB.wtf

RePack

FAR CRY 5

Anonymous, доброй ночи, мы не успеваем собрать деньги на оплату серверов за февраль, помогите нам пожалуйста в это трудное время. В качестве благодарности мы отключим Вам всю рекламу на сайте (укажите свой ник в строку Ваше имя)!

×
  
Magnet ссылка

Доброволец / Доброволець / Сезон: 1 / Серии: 1-6 из 6 (Ахтем Сейтаблаев) [2020, детектив, боевик, триллер, WEBRip 1080p] [UKR, RUS] piratbit.org

Доброволец через торрент piratbit.org

Размер: 9.8 GB | Добавлен: 4 мес. 20 д. назад | Торрент скачан:22 раза
Скачать  

06-10-2020 18:50 Доброволец Скачать торрент  

Доброволец / Доброволець
Год выпуска: 2020
Страна: Украина
Жанр: детектив, боевик, триллер
Продолжительность: 6х~ 00:45:00
Перевод: Украинский, русский
Субтитры: украинские

Режиссер: Ахтем Сейтаблаев

В ролях: Олег Шульга, Роман Мацюта, Мария Пашкурова-Петренко, Андрей Мостренко, Сергей Деревянко, Денис Гранчак, Александр Пожарский, Олег Волощенко, Всеволод Шекита, Сергей Деньга, Сергей Дзялик, Петр Ниньовський, Таисия-Оксана Щурук, Ольга Олексий, Наталья Васько Роман Ясиновский, Назар Ефросинин, Владислав Романиченко, Сергей Кучера, Николай Боклан, Игорь Тихомиров Сериал “Доброволец” режиссера фильмов “Киборги”, “Захар Беркут”, “Номера” Ахтема Сеитаблаева рассказывает о добровольце Дмитрие, который даже после возвращения с войны не прекращает защищать Родину. Узнав, что в Киеве готовится теракт, он собирает команду бывших бойцов АТО, чтобы найти террористов и спасти столицу от взрыва. Параллельно он пытается справиться с тяжелой психологической травмой из-за потери собратьев на войне.



Качество: WEBRip 1080p
Формат: MKV
Видео: AVC, 1920x1080, 25 fps, 4 000 kb/s
Аудио: 48 kHz, AAC, 2 ch, ~128 kbps
General
Unique ID : 178445621196372335880854194364640488261 (0x863F606450ACCED623B2176C48A96B45)
Complete name : D:\Documents\Torrents\Доброволець S01 1080p WEBRip\Доброволець.S01E01.1080p.WEBRip.mkv
Format : Matroska
Format version : Version 4
File size : 1.25 GiB
Duration : 43 min 16 s
Overall bit rate mode : Variable
Overall bit rate : 4 126 kb/s
Movie name : Доброволець S01 1080p WEBRip by sergiyko
Encoded date : UTC 2020-10-01 08:05:22
Writing application : mkvmerge v49.0.0 ('Sick Of Losing Soulmates') 64-bit
Writing library : libebml v1.4.0 + libmatroska v1.6.1

Video
ID : 1
Format : AVC
Format/Info : Advanced Video Codec
Format profile : Baseline@L4
Format settings : 1 Ref Frames
Format settings, CABAC : No
Format settings, Reference : 1 frame
Format settings, GOP : M=1, N=5
Codec ID : V_MPEG4/ISO/AVC
Duration : 43 min 16 s
Bit rate mode : Variable
Bit rate : 4 000 kb/s
Width : 1 920 pixels
Height : 1 080 pixels
Display aspect ratio : 16:9
Frame rate mode : Constant
Frame rate : 25.000 FPS
Color space : YUV
Chroma subsampling : 4:2:0
Bit depth : 8 bits
Scan type : Progressive
Bits/(Pixel*Frame) : 0.077
Stream size : 1.21 GiB (97%)
Language : Ukrainian
Default : Yes
Forced : No

Audio
ID : 2
Format : AAC LC
Format/Info : Advanced Audio Codec Low Complexity
Codec ID : A_AAC-2
Duration : 43 min 16 s
Bit rate : 128 kb/s
Channel(s) : 2 channels
Channel layout : L R
Sampling rate : 44.1 kHz
Frame rate : 43.066 FPS (1024 SPF)
Compression mode : Lossy
Stream size : 39.7 MiB (3%)
Language : Ukrainian
Default : Yes
Forced : No

скриншот  скриншот  скриншот  
piratbit.org



Скачать Доброволец через торрент https://i114.fastpic.ru/big/2020/1006/4b/c4266b3902b502b3d3455e52e518894b.jpg Скачать фильм Доброволец через торрент бесплантно в хорошем качестве В ролях: Олег Шульга, Роман Мацюта, Мария Пашкурова-Петренко, Андрей Мостренко, Сергей Деревянко, Денис Гранчак, Александр Пожарский, Олег ... 7 10 12
Info! Золотая раздача, скачанное не засчитывается.
Торрент: Зарегистрирован [2020-10-06 18:50] · скачан: 22 раз
Статус: √ проверено
Размер: 9.8 GB
Как cкачать? Как скачать Доброволец через торрент | UTorrent

28-11-2019 20:33  

Отключить всю рекламу на сайте


    Дорогой пользователь! Огромная просьба, поблагодарите релизера, оцените раздачу и оставьте свои комментарий, если Вы скачали Доброволец через торрент бесплатно! Внесите свою лепту в развитие PiratBit!
    Комментировать посты могут только пользователи прошедшие не сложную регистрацию
    Показать сообщения:    

    Доброволец через торрент
    Скачать бесплатно Доброволец
    Доброволец скачать торрент
    Доброволец смотреть онлайн
    Cкачать фильм Доброволец бесплатно
    Доброволец скачать торрент в хорошем качестве
    Доброволец смотреть онлайн бесплатно в хорошем качестве


    Вы не можете начинать темы
    Вы не можете отвечать на сообщения
    Вы не можете редактировать свои сообщения
    Вы не можете удалять свои сообщения
    Вы не можете голосовать в опросах
    Вы не можете прикреплять файлы к сообщениям
    Вы можете скачивать файлы