Ссылка на приватное зеркало нашего сайта всего за 1$. Внимание количество ограничено!!!

2 сезон

iTunes

1 сезон

1

iTunes

iTunes

iTunes

1 сезон

RePack

30

ИГРА 18+

pack

ВАЖНО

!!Акция!!

Alien_RageХит недели

RePack

MK11
pack

Забери бонус

RePack

jed

!!Акция!!

Alien_Rage

RePack

fifa19

RePack

Assassins Creed: Odyssey

RePack

NEED FOR SPEED™ PAYBACK

4 сезон

9 сезон

Бесстыжие 9 сезон

Все сериалы

все сериалы на PB.wtf

RePack

FAR CRY 5
  

Сыщики под прикрытием / Мортадело и Филимон против Джимми Торчка / Mortadelo y Filemón contra Jimmy el Cachondo (Хавьер Фессер) [2014, Мультфильм, комедия, BDRip 720p] MVO [iTunes] piratbit.org

Сыщики под прикрытием через торрент piratbit.org

Раздают: 7 [ 0 KB/s ]
Размер: 4.21 GB | Добавлен: 20 д. назад | Торрент скачан:83 раза
Скачать  

07-10-2020 03:56 Сыщики под прикрытием Скачать торрент  

Сыщики под прикрытием | Мортадело и Филимон против Джимми Торчка
Mortadelo y Filemón contra Jimmy el Cachondo

Год выпуска: 2014
Страна: Испания
Выпущено: Canal+ España, Televisió de Catalunya, Televisión Española
Жанр: Мультфильм, комедия
Продолжительность: 01:32:09
Перевод: Профессиональный (многоголосый) | iTunes
Субтитры: Spanish (Full, SDH), English (Full)

Режиссер: Хавьер Фессер

rating

В ролях: Карра Элехальде, Джанфри Топера, Гэбриель Шаме, Рамон Ланга, Хосе Алиас, Мариано Венансио, Энрике Вильен, Эмилио Гавира, Берта Охеа

Описание: Они - самые ценные агенты секретной организации. Никто так эффектно не умет потрясать оружием и садиться в лужу. И когда страшный злодей похищает сейф прямо из штаб-квартиры ЦРУ, начальство вызывает их.

Качество: BDRip 720p
Формат: MKV

Видео: MPEG-4 AVC, 5514 Kb/s, 1280x692, 23.976 fps
Аудио#1 Russian: 48 kHz, AC3 Dolby Digital, 3/2 (L, C, R, l, r) + LFE ch, ~384 Kbps | iTunes
Аудио#2 Spanish: 48 kHz, AC3 Dolby Digital, 3/2 (L, C, R, l, r) + LFE ch, ~640 Kbps | Original
скриншот  скриншот  скриншот  скриншот  

Complete name: Syischiki.pod.prikryitiem.2014.BDRip.720p.ELEKTRI4KA.UNIONGANG.mkv
Format: Matroska
Format version: Version 4 / Version 2
File size: 4.21 GiB
Duration: 1 h 32 min
Overall bit rate: 6 533 kb/s
Movie name: .ELEKTRI4KA.UNIONGANG.
Encoded date: UTC 2020-10-06 19:09:09
Writing application: mkvmerge v8.3.0 ('Over the Horizon') 64bit
Writing library: libebml v1.3.1 + libmatroska v1.4.2

Video
ID: 1
Format: AVC
Format/Info: Advanced Video Codec
Format profile: High@L4.1
Format settings, CABAC: Yes
Format settings, Reference frames: 9 frames
Codec ID: V_MPEG4/ISO/AVC
Duration: 1 h 32 min
Bit rate: 5 514 kb/s
Width: 1 280 pixels
Height: 692 pixels
Display aspect ratio: 1.85:1
Frame rate mode: Constant
Frame rate: 23.976 (24000/1001) FPS
Color space: YUV
Chroma subsampling: 4:2:0
Bit depth: 8 bits
Scan type: Progressive
Bits/(Pixel*Frame): 0.260
Stream size: 3.54 GiB (84%)
Writing library: x264 core 148 r2694M 3b70645
Encoding settings: cabac=1 / ref=9 / deblock=1:-1:-1 / analyse=0x3:0x133 / me=umh / subme=11 / psy=1 / psy_rd=1.06:0.10 / mixed_ref=1 / me_range=48 / chroma_me=1 / trellis=2 / 8x8dct=1 / cqm=0 / deadzone=21, 11 / fast_pskip=0 / chroma_qp_offset=-3 / threads=9 / lookahead_threads=2 / sliced_threads=0 / nr=0 / decimate=0 / interlaced=0 / bluray_compat=0 / constrained_intra=0 / bframes=10 / b_pyramid=2 / b_adapt=2 / b_bias=0 / direct=3 / weightb=1 / open_gop=0 / weightp=2 / keyint=240 / keyint_min=23 / scenecut=40 / intra_refresh=0 / rc_lookahead=100 / rc=2pass / mbtree=0 / bitrate=5514 / ratetol=1.0 / qcomp=0.70 / qpmin=0 / qpmax=69 / qpstep=4 / cplxblur=20.0 / qblur=0.5 / vbv_maxrate=50000 / vbv_bufsize=60000 / nal_hrd=none / filler=0 / ip_ratio=1.40 / pb_ratio=1.30 / aq=1:0.75
Language: Spanish
Default: Yes
Forced: No
Color range: Limited
Color primaries: BT.709
Transfer characteristics: BT.709
Matrix coefficients: BT.709

Audio #1
ID: 2
Format: AC-3
Format/Info: Audio Coding 3
Mode extension: CM (complete main)
Format settings, Endianness: Big
Codec ID: A_AC3
Duration: 1 h 32 min
Bit rate mode: Constant
Bit rate: 384 kb/s
Channel(s): 6 channels
Channel positions: Front: L C R, Side: L R, LFE
Sampling rate: 48.0 kHz
Frame rate: 31.250 FPS (1536 spf)
Bit depth: 16 bits
Compression mode: Lossy
Stream size: 253 MiB (6%)
Title: iTunes
Language: Russian
Default: Yes
Forced: Yes

Audio #2
ID: 3
Format: AC-3
Format/Info: Audio Coding 3
Mode extension: CM (complete main)
Format settings, Endianness: Big
Codec ID: A_AC3
Duration: 1 h 32 min
Bit rate mode: Constant
Bit rate: 640 kb/s
Channel(s): 6 channels
Channel positions: Front: L C R, Side: L R, LFE
Sampling rate: 48.0 kHz
Frame rate: 31.250 FPS (1536 spf)
Bit depth: 16 bits
Compression mode: Lossy
Stream size: 422 MiB (10%)
Title: Original | DD 5.1 @ 640 kbps
Language: Spanish
Default: No
Forced: No

Text #1
ID: 4
Format: UTF-8
Codec ID: S_TEXT/UTF8
Codec ID/Info: UTF-8 Plain Text
Duration: 1 h 31 min
Bit rate: 70 b/s
Count of elements: 1337
Stream size: 47.3 KiB (0%)
Title: Full
Language: Spanish
Default: No
Forced: No

Text #2
ID: 5
Format: UTF-8
Codec ID: S_TEXT/UTF8
Codec ID/Info: UTF-8 Plain Text
Duration: 1 h 31 min
Bit rate: 74 b/s
Count of elements: 1539
Stream size: 50.3 KiB (0%)
Title: SDH
Language: Spanish
Default: No
Forced: No

Text #3
ID: 6
Format: UTF-8
Codec ID: S_TEXT/UTF8
Codec ID/Info: UTF-8 Plain Text
Duration: 1 h 31 min
Bit rate: 62 b/s
Count of elements: 1349
Stream size: 41.8 KiB (0%)
Language: English
Default: No
Forced: No

Menu
00:00:00.000: :(01)00:00:00:000
00:08:49.070: :(02)00:08:49:070
00:20:06.330: :(03)00:20:06:330
00:30:31.079: :(04)00:30:31:079
00:38:01.529: :(05)00:38:01:529
00:50:07.421: :(06)00:50:07:421
01:02:47.305: :(07)01:02:47:305
01:12:45.360: :(08)01:12:45:360
01:25:14.859: :(09)01:25:14:859

piratbit.org



Скачать Сыщики под прикрытием через торрент https://i6.imageban.ru/out/2020/10/06/7de6d0e1bf5f77ab4fd23a713c70f562.png Скачать фильм Сыщики под прикрытием через торрент бесплантно в хорошем качестве Описание: Они - самые ценные агенты секретной организации. Никто так эффектно не умет потрясать оружием и садиться в лужу. И когда страшный ... 10 10 7
Торрент: Зарегистрирован [2020-10-07 03:56] · скачан: 83 раз
Статус: √ проверено
Размер: 4.21 GB
Как cкачать? Как скачать Сыщики под прикрытием через торрент | qTorrent

% Раздел Тема Автор DL S | L
Иностранные мультфильмы [ 1.42 GB ] Сыщики под прикрытием / Мортадело и Филимон против Джимми Торчка / Mortadelo y Filemón contra Jimmy el Cachondo [2014 Мультфильм BDRip] MVO Twi7ter Скачать
8 | 0
Иностранные мультфильмы [ 1.46 GB ] Сыщики под прикрытием / Мортадело и Филимон против Джимми Торчка / Mortadelo y Filemón contra Jimmy el Cachondo [2014 Мультфильм HDRip] MVO bober100 Скачать
2 | 0


Последний раз редактировалось: bober100 (2020-10-07 10:56), всего редактировалось 1 раз

28-11-2019 20:33  

Отключить всю рекламу на сайте

    Дорогой пользователь! Огромная просьба, поблагодарите релизера, оцените раздачу и оставьте свои комментарий, если Вы скачали Сыщики под прикрытием через торрент бесплатно! Внесите свою лепту в развитие PiratBit!
    Комментировать посты могут только пользователи прошедшие не сложную регистрацию
    Показать сообщения:    

    Сыщики под прикрытием через торрент
    Скачать бесплатно Сыщики под прикрытием
    Сыщики под прикрытием скачать торрент
    Сыщики под прикрытием смотреть онлайн
    Cкачать фильм Сыщики под прикрытием бесплатно
    Сыщики под прикрытием скачать торрент в хорошем качестве
    Сыщики под прикрытием смотреть онлайн бесплатно в хорошем качестве


    Вы не можете начинать темы
    Вы не можете отвечать на сообщения
    Вы не можете редактировать свои сообщения
    Вы не можете удалять свои сообщения
    Вы не можете голосовать в опросах
    Вы не можете прикреплять файлы к сообщениям
    Вы можете скачивать файлы