1 сезон

3 сезон

iTunes

1

iTunes

DUB Netflix

iTunes

13

1 сезон

RePack

30

Deluxe

pack

Легкие деньги

ВАЖНО

ИГРА 18+

pack

RePack

MK11

RePack

jed

RePack

fifa19

RePack

RDR2

RePack

NEED FOR SPEED™ PAYBACK

4 сезон

9 сезон

Бесстыжие 9 сезон

Все сериалы

все сериалы на PB.wtf

RePack

FAR CRY 5

Anonymous, добрый день, мы не успеваем до 1 числа собрать деньги на оплату серверов, помогите нам пожалуйста в это трудное время. В качестве благодарности мы отключим Вам всю рекламу на сайте (укажите свой ник в строку Ваше имя)!

×
  
Magnet ссылка

Чича из Ольги / Серии: 1-2 из 2 (Артём Лемперт) [2020, Комедия, WEBRip 720p] piratbit.org

Чича из Ольги через торрент piratbit.org

Размер: 1.13 GB | Добавлен: 8 мес. назад | Торрент скачан:109 раз
Скачать  

07-10-2020 12:43 Чича из Ольги Скачать торрент  

Чича из Ольги
Год выпуска: 2020
Страна: Россия
Студия: Good Story Media
Жанр: Комедия
Продолжительность: ~ 00:25:00 серия
Перевод: Не требуется
Субтитры: отсутствуют

Режиссер: Артём Лемперт



В ролях: Тимофей Зайцев, Илья Борисов, Гоша Куценко, Яна Троянова, Василий Кортуков, Алина Алексеева (II)

Описание: Мини-сериал в жанре мокьюментари о приключениях Чичи из сериала «Ольга» и его друга детства Бабая. Тимофей «Чича» Зайцев уверен, что давно перерос образ Чичи, и изо всех сил старается доказать, чего стоит на самом деле… А пока, в отсутствие новых «серьезных» ролей, он снимает видеоблог, пытается произвести впечатление на бывшую и попасть на пробы к самому Звягинцеву! Но из-за своего характера и неуемных амбиций Тимофей каждый раз попадает в нелепые и смешные ситуации. Каждая серия – это сразу две комедийные новеллы о творческих поисках Чичи из «Ольги».

Качество: WEBRip 720p
Формат: MKV

Видео: MPEG-4 AVC, ~ 3000 Кбит/с, 1280x720, 25 кадр/с
Аудио: 48.0 kHz, AC3 Dolby Digital, 2/0 (L,R) ch, ~ 192 kbps
скриншот  скриншот  скриншот  скриншот  скриншот  

General
Unique ID : 179764456368806528923898184686397741736 (0x873D5FFC714B66D18DA55F0EBCFADAA8)
Complete name : H:\fiiles x\Чича из Ольги..2020.WEB-DL 720p.Files-x\01. Чича из Ольги..2020.WEB-DL 720p.Files-x.mkv
Format : Matroska
File size : 561 MiB
Duration : 24mn 45s
Overall bit rate : 3 167 Kbps
Encoded date : UTC 2020-09-29 08:48:37
Writing application : mkvmerge v7.8.0 ('River Man') 32bit built on Apr 3 2015 12:11:22
Writing library : libebml v1.3.1 + libmatroska v1.4.2

Video
ID : 1
Format : AVC
Format/Info : Advanced Video Codec
Format profile : High@L3.1
Format settings, CABAC : Yes
Format settings, ReFrames : 1 frame
Codec ID : V_MPEG4/ISO/AVC
Duration : 24mn 46s
Bit rate mode : Variable
Bit rate : 2 912 Kbps
Maximum bit rate : 3 000 Kbps
Width : 1 280 pixels
Height : 720 pixels
Display aspect ratio : 16:9
Frame rate : 25.000 fps
Color space : YUV
Chroma subsampling : 4:2:0
Bit depth : 8 bits
Scan type : Progressive
Bits/(Pixel*Frame) : 0.126
Stream size : 516 MiB (92%)

Audio
ID : 2
Format : AC-3
Format/Info : Audio Coding 3
Mode extension : CM (complete main)
Codec ID : A_AC3
Duration : 24mn 45s
Bit rate mode : Constant
Bit rate : 192 Kbps
Channel(s) : 2 channels
Channel positions : Front: L R
Sampling rate : 44.1 KHz
Bit depth : 16 bits
Compression mode : Lossy
Delay relative to video : 9ms
Stream size : 34.0 MiB (6%)

piratbit.org



Скачать Чича из Ольги через торрент https://img11.lostpic.net/2020/09/28/de333d03f36c50adb816029a444dd59e.jpg Скачать фильм Чича из Ольги через торрент бесплантно в хорошем качестве Описание: Мини-сериал в жанре мокьюментари о приключениях Чичи из сериала «Ольга» и его друга детства Бабая. Тимофей «Чича» Зайцев уверен, ... 10 10 4
Торрент: Зарегистрирован [2020-10-07 12:43] · скачан: 109 раз
Статус: √ проверено
Размер: 1.13 GB
Как cкачать? Как скачать Чича из Ольги через торрент | UTorrent

% Раздел Тема Автор DL S | L
TNT serials [ 1.66 GB ] Чича из Ольги / Серии: 1-2 из 2 [2020 WEBRip 1080p] bober100 Скачать
1 | 0
TNT serials [ 2.06 GB ] Чича из Ольги / Серии: 1-2 из 2 [2020 HDTV 1080i] bober100 Скачать
1 | 0
TNT serials [ 650 MB ] Чича из Ольги / Серии: 1-2 из 2 [2020 SATRip] bober100 Скачать
2 | 0

28-11-2019 20:33  

Отключить всю рекламу на сайте

    Дорогой пользователь! Огромная просьба, поблагодарите релизера, оцените раздачу и оставьте свои комментарий, если Вы скачали Чича из Ольги через торрент бесплатно! Внесите свою лепту в развитие PiratBit!
    Комментировать посты могут только пользователи прошедшие не сложную регистрацию
    Показать сообщения:    

    Чича из Ольги через торрент
    Скачать бесплатно Чича из Ольги
    Чича из Ольги скачать торрент
    Чича из Ольги смотреть онлайн
    Cкачать фильм Чича из Ольги бесплатно
    Чича из Ольги скачать торрент в хорошем качестве
    Чича из Ольги смотреть онлайн бесплатно в хорошем качестве


    Вы не можете начинать темы
    Вы не можете отвечать на сообщения
    Вы не можете редактировать свои сообщения
    Вы не можете удалять свои сообщения
    Вы не можете голосовать в опросах
    Вы не можете прикреплять файлы к сообщениям
    Вы можете скачивать файлы