Ссылка на приватное зеркало нашего сайта всего за 1$. Внимание количество ограничено!!!

2 сезон

iTunes

1 сезон

1

iTunes

iTunes

iTunes

1 сезон

RePack

30

ИГРА 18+

pack

ВАЖНО

!!Акция!!

Alien_RageХит недели

RePack

MK11
pack

Забери бонус

RePack

jed

!!Акция!!

Alien_Rage

RePack

fifa19

RePack

Assassins Creed: Odyssey

RePack

NEED FOR SPEED™ PAYBACK

4 сезон

9 сезон

Бесстыжие 9 сезон

Все сериалы

все сериалы на PB.wtf

RePack

FAR CRY 5
  

Некст / Next / Сезон: 1 / Серии: 1-2 из 10 (Тим Хантер, Гленн Фикарра, Аманда Марсалис) [2020, Фантастика, драма, криминал, WEB-DL 1080p] MVO [NewStudio] piratbit.org

Некст через торрент piratbit.org

Раздают: 4 [ 8 KB/s ]
Размер: 5.92 GB | Добавлен: 3 д. назад | Торрент скачан:10 раз
Скачать  

09-10-2020 19:43 Некст Скачать торрент  

Некст | Next
Год выпуска: 2020
Страна: США
Выпущено: 20th Century Fox Television, Fox Entertainment, Zaftig Films
Жанр: Фантастика, драма, криминал
Продолжительность: ~00:45:00 серия
Перевод: Профессиональный (многоголосый) | NewStudio
Субтитры: Английские (SDH)

Режиссер: Тим Хантер, Гленн Фикарра, Аманда Марсалис

rating

В ролях: Ивэн Уиттен, Дэнн Финк, Фернанда Андраде, Лиззи Каппуччино, Ив Харлоу, Джон Слэттери, Майкл Мосли, Джон Кассини, Эдриан Беллани, Аарон Мотен

Описание: Пионер Кремниевой долины Пол Леблан сделал состояние на технологических инновациях, изменяющих наш мир, но в угоду призванию он отдалился от людей вокруг, включая собственную дочь, Эбби, и недальновидного брата Теда, который теперь управляет компанией Пола. Когда выясняется, что один из созданных Лебланом высокотехнологичных гаджетов на базе искусственного интеллекта «НЕКСТ» может обречь человечество на апокалипсис, Пол пытается закрыть проект, но слишком поздно: собственный брат отстранил его от руководства, и теперь Пол не знает, как остановить грядущую катастрофу.

Качество: WEB-DL 1080p
Формат: MKV

Видео: MPEG-4 AVC, 1920x1080 (16:9), 23.976 fps, ~ 8000 Kbps
Аудио №1: AC3, 48,0 kHz, 6 ch, 384 kbps | NewStudio
Аудио №2: AC3, 48,0 kHz, 6 ch, 640 kbps | Original
скриншот  скриншот  скриншот  скриншот  

Complete name : D:ShowsneXt_(s01)_1080pneXt.2020.S01E01.FILE.1.1080p.AMZN.WEB-DL.DD5.1.x264-NTb_EniaHD.mkv
Format : Matroska
Format version : Version 4
File size : 2.96 GiB
Duration : 45 min 26 s
Overall bit rate : 9 332 kb/s
Encoded date : UTC 2020-10-09 19:33:43
Writing application : mkvmerge v31.0.0 ('Dolores In A Shoestand') 64-bit
Writing library : libebml v1.3.6 + libmatroska v1.4.9

Video
ID : 1
Format : AVC
Format/Info : Advanced Video Codec
Format profile : High@L4
Format settings : CABAC / 4 Ref Frames
Format settings, CABAC : Yes
Format settings, Reference : 4 frames
Codec ID : V_MPEG4/ISO/AVC
Duration : 45 min 26 s
Bit rate mode : Constant
Bit rate : 8 049 kb/s
Nominal bit rate : 10 000 kb/s
Width : 1 920 pixels
Height : 1 080 pixels
Display aspect ratio : 16:9
Frame rate mode : Constant
Frame rate : 23.976 (24000/1001) FPS
Color space : YUV
Chroma subsampling : 4:2:0
Bit depth : 8 bits
Scan type : Progressive
Bits/(Pixel*Frame) : 0.162
Stream size : 2.56 GiB (86%)
Title : Release by EniaHD
Default : Yes
Forced : No
Color range : Limited
Color primaries : BT.709
Transfer characteristics : BT.709
Matrix coefficients : BT.709

Audio #1
ID : 2
Format : AC-3
Format/Info : Audio Coding 3
Commercial name : Dolby Digital
Codec ID : A_AC3
Duration : 45 min 26 s
Bit rate mode : Constant
Bit rate : 640 kb/s
Channel(s) : 6 channels
Channel layout : L R C LFE Ls Rs
Sampling rate : 48.0 kHz
Frame rate : 31.250 FPS (1536 SPF)
Compression mode : Lossy
Delay relative to video : 30 ms
Stream size : 208 MiB (7%)
Title : NewStudio
Language : Russian
Service kind : Complete Main
Default : Yes
Forced : No

Audio #2
ID : 3
Format : AC-3
Format/Info : Audio Coding 3
Commercial name : Dolby Digital
Codec ID : A_AC3
Duration : 45 min 26 s
Bit rate mode : Constant
Bit rate : 640 kb/s
Channel(s) : 6 channels
Channel layout : L R C LFE Ls Rs
Sampling rate : 48.0 kHz
Frame rate : 31.250 FPS (1536 SPF)
Compression mode : Lossy
Delay relative to video : 30 ms
Stream size : 208 MiB (7%)
Language : English
Service kind : Complete Main
Default : No
Forced : No

Text
ID : 4
Format : UTF-8
Codec ID : S_TEXT/UTF8
Codec ID/Info : UTF-8 Plain Text
Duration : 45 min 24 s
Bit rate : 98 b/s
Count of elements : 1054
Stream size : 32.9 KiB (0%)
Title : SDH
Language : English
Default : No
Forced : No

Когда раздача ведётся путём добавления новых серий, при каждом добавлении создётся новый торрент. Чтобы начать докачку новой серии, пользователям необходимо сделать следующее:
(1) остановить скачивание,
(2) удалить старый торрент у себя из клиента (старые серии удалять не надо),
(3) скачать новый торрент и запустить его у себя в клиенте вместо старого, при этом указать клиенту путь в старую папку, куда и должно происходить скачивание новых серий.
Ваш клиент при этом должен произвести хеширование (проверку) старой папки (если не производит сам - помогите ему сделать это), и будет докачивать только те серии, которых у вас ещё нет. Старые серии при этом не удаляются, а продолжают раздаваться!
Eсли вы уже удалили старые серии, то предотвратить повторную закачку старых серий можно, отжав галочку в соответсвующих местах при запуске нового торрента. По возможности, желательно не удалять старые серии как можно дольше, чтобы релизёр не столько продолжал раздавать старые серии, а смог сконцентрироваться на новых.

piratbit.org



Скачать Некст через торрент http://i114.fastpic.ru/big/2020/1003/ca/b7558f3755e74aa2a3596c0cc1b12cca.png Скачать фильм Некст через торрент бесплантно в хорошем качестве Описание: Пионер Кремниевой долины Пол Леблан сделал состояние на технологических инновациях, изменяющих наш мир, но в угоду призванию он ... 10 10 3
Торрент: Зарегистрирован [2020-10-17 19:10] · скачан: 10 раз
Статус: √ проверено
Размер: 5.92 GB
Как cкачать? Как скачать Некст через торрент | qTorrent

% Раздел Тема Автор DL S | L
Зарубежные сериалы [ 1.24 GB ] Некст / Next / Сезон: 1 / Серии: 1-2 из 10 [2020 WEB-DLRip] MVO [NewStudio] bober100 Скачать
1 | 1

28-11-2019 20:33  

Отключить всю рекламу на сайте

    Дорогой пользователь! Огромная просьба, поблагодарите релизера, оцените раздачу и оставьте свои комментарий, если Вы скачали Некст через торрент бесплатно! Внесите свою лепту в развитие PiratBit!
    Комментировать посты могут только пользователи прошедшие не сложную регистрацию
    Показать сообщения:    

    Некст через торрент
    Скачать бесплатно Некст
    Некст скачать торрент
    Некст смотреть онлайн
    Cкачать фильм Некст бесплатно
    Некст скачать торрент в хорошем качестве
    Некст смотреть онлайн бесплатно в хорошем качестве


    Вы не можете начинать темы
    Вы не можете отвечать на сообщения
    Вы не можете редактировать свои сообщения
    Вы не можете удалять свои сообщения
    Вы не можете голосовать в опросах
    Вы не можете прикреплять файлы к сообщениям
    Вы можете скачивать файлы