Достать ножи: Стеклянная луковица

MVO

Добыча

Дубляж

Уэнсдэй

1 сезон

Тор

Дубляж

13 клиническая

1 сезон

Жестокая ночь

MVO

Одни из нас

1 сезон

Deluxe

pack

Рекомендуем

30

Пиратка

ВАЖНО

ВАЖНО

Ghostwire

Пиратка

jed

RePack

nioh2

RePack

RDR2

RePack

NEED FOR SPEED™ PAYBACK

RePack

скачать торрент

Кинопоиск HD

Острые козырьки 6 сезон

6 сезон

FAR CRY 6

RePack

скачать торрент

Лицензия

скачать торрент

MVO

1

1 сезон

скачать торрент

1 сезон

скачать торрент

Лицензия

  

Назад в будущее / Back to the Future (Роберт Земекис) [1985, Фантастика, комедия, приключения, UHD BDRemux 2160p] Дубляж [Лицензия] +4xMVO+3xDVO+8xAVO

Назад в будущее через торрент piratbit.org

Размер: 124.66 GB | Добавлен: 2 года 3 мес. назад | Торрент скачан:54 раза
Смотреть онлайн | Скачать | Поддержите нас   

12-10-2020 10:14 Назад в будущее Скачать торрент  

Назад в будущее | Back to the Future
Год выпуска: 1985
Страна: США
Студия: Universal Pictures, Amblin Entertainment, U-Drive Productions
Жанр: Фантастика, комедия, приключения
Продолжительность: 01:56:02
Перевод(ы):
#1: Дублированный | Лицензия
#2: Авторский | Гаврилов Андрей (ранний)
#3: Авторский | Гаврилов Андрей (поздний)
#4: Авторский | Михалёв Алексей
#5: Авторский | Горчаков Василий
#6: Авторский | Дубровин Владимир
#7: Авторский | Неизвестный [неполный]
#8: Авторский | Переговорщик Гаврилова-раннего
#9: Авторский | Сербин Юрий
#10: Авторский | Дохалов Вартан
#11: Профессиональный двухголосый | Гланц Пётр+Лютая Евгения (псевдо-дубляж)
#12: Профессиональный двухголосый | Тарадайкин Игорь+Германова Любовь [Премьер-видео]
#13: Профессиональный многоголосый | Стрелков Станислав+Божок Татьяна [Киномания] [DDV] [Biz video]
#14: Профессиональный многоголосый | Стрелков Станислав+Зотов Константин+Женщина [FDV]
#15: Профессиональный многоголосый | Карусель
#16: Профессиональный двухголосый | Андреев Вадим+Гнилова Людмила [НТВ=СТС]
#17: Профессиональный многоголосый | Форостенко Олег+Филимонов Дмитрий+Казанцев Андрей+Никонова Жанна [ОРТ]
Субтитры: Русские (full), английские

Режиссер: Роберт Земекис

rating

В ролях: Майкл Дж. Фокс, Кристофер Ллойд, Лиа Томпсон, Криспин Гловер, Томас Ф. Уилсон, Клаудия Уэллс, Марк МакКлюр, Уэнди Джо Спербер, Джордж Дицензо, Фрэнсис Ли МакКейн

Описание: Марти МакФлай с помощью машины времени, сооруженной его другом профессором доком Брауном, попадает из 80-х в далекие 50-е. Там он встречается со своими будущими родителями, еще подростками, и другом-профессором, совсем молодым. Он нарушает естественный ход событий прошлого, чем вызывает массу смешных и драматических ситуаций. Собственная смекалка и фантазия профессора помогают преодолеть все препятствия и благополучно вернуться к себе, в свое время.

Качество: UHD BDRemux 2160p
Формат: MKV

Видео: 3840x2160 at 23.976 fps, MPEG-H HEVC HDR Video, 73200 kbps avg
Аудио #01: 48 kHz, DTS, 5.1, 768 Kbps | Дублированный | RUS |
Аудио #02: 48 kHz, AC3, 5.1, 448 Kbps | Дублированный | RUS |
Аудио #03: 48 kHz, DTS-HD MA, 5.1, 4237 Kbps | Гаврилов Андрей (ранний) | RUS |
Аудио #04: 48 kHz, DTS-HD MA, 5.1, 4261 Kbps | Гаврилов Андрей (поздний) | RUS |
Аудио #05: 48 kHz, DTS-HD MA, 5.1, 4235 Kbps | Михалёв Алексей | RUS |
Аудио #06: 48 kHz, DTS-HD MA, 5.1, 4240 Kbps | Горчаков Василий | RUS |
Аудио #07: 48 kHz, DTS-HD MA, 5.1, 3884 Kbps | Дубровин Владимир | RUS |
Аудио #08: 48 kHz, DTS-HD MA, 5.1, 4232 Kbps | Неизвестный [неполный] | RUS |
Аудио #09: 48 kHz, DTS-HD MA, 5.1, 4257 Kbps | Переговорщик Гаврилова-раннего | RUS |
Аудио #10: 48 kHz, DTS-HD MA, 5.1, 4255 Kbps | Сербин Юрий | RUS |
Аудио #11: 48 kHz, DTS-HD MA, 5.1, 4250 Kbps | Дохалов Вартан | RUS |
Аудио #12: 48 kHz, DTS-HD MA, 5.1, 4234 Kbps | Гланц Пётр+Лютая Евгения (псевдо-дубляж) | RUS |
Аудио #13: 48 kHz, DTS-HD MA, 5.1, 3879 Kbps | Тарадайкин Игорь+Германова Любовь [Премьер-видео] | RUS |
Аудио #14: 48 kHz, DTS-HD MA, 5.1, 4238 Kbps | Стрелков Станислав+Божок Татьяна [Киномания] [DDV] [Biz video] | RUS |
Аудио #15: 48 kHz, DTS-HD MA, 5.1, 3898 Kbps | Стрелков Станислав+Зотов Константин+Женщина [FDV] | RUS |
Аудио #16: 48 kHz, DTS-HD MA, 5.1, 4236 Kbps | Карусель | RUS |
Аудио #17: 48 kHz, DTS-HD MA, 5.1, 3885 Kbps | Андреев Вадим+Гнилова Людмила [НТВ=СТС] | RUS |
Аудио #18: 48 kHz, DTS-HD MA, 5.1, 3889 Kbps | Форостенко Олег+Филимонов Дмитрий+Казанцев Андрей+Никонова Жанна [ОРТ] | RUS |
Аудио #19: 48 kHz, DTS-HD MA, 5.1, 4240 Kbps | [1+1] | UKR |
Аудио #20: 48 kHz, DTS-HD MA, 5.1, 4240 Kbps | [Новый канал] | UKR |
Аудио #21: 48 kHz, TrueHD, 7.1, 4213 Kbps | Оригинал | ENG |
Аудио #22: 48 kHz, AC3, 5.1, 448 Kbps | Оригинал | ENG |
скриншот  скриншот  скриншот  скриншот  скриншот  

General
Unique ID : 190333133371379833440118280791744146699 (0x8F30D3FE288B158827D2FE08CD296D0B)
Complete name : D:Video111Back.to.the.Future.1985.BDREMUX.2160p.HDR.seleZen.mkv
Format : Matroska
Format version : Version 4
File size : 125 GiB
Duration : 1 h 56 min
Overall bit rate mode : Variable
Overall bit rate : 154 Mb/s
Movie name : Back to the Future 1985 4K UHD from селезень
Encoded date : UTC 2020-10-12 09:22:36
Writing application : mkvmerge v40.0.0 ('Old Town Road + Pony') 64-bit
Writing library : libebml v1.3.9 + libmatroska v1.5.2

Video
ID : 1
Format : HEVC
Format/Info : High Efficiency Video Coding
Format profile : Main 10@L5.1@High
HDR format : SMPTE ST 2094 App 4, Version 1, HDR10+ Profile B compatible
Codec ID : V_MPEGH/ISO/HEVC
Duration : 1 h 56 min
Bit rate : 73.2 Mb/s
Width : 3 840 pixels
Height : 2 160 pixels
Display aspect ratio : 16:9
Frame rate mode : Constant
Frame rate : 23.976 (24000/1001) FPS
Color space : YUV
Chroma subsampling : 4:2:0 (Type 2)
Bit depth : 10 bits
Bits/(Pixel*Frame) : 0.368
Stream size : 59.3 GiB (48%)
Language : English
Default : Yes
Forced : No
Color range : Limited
Color primaries : BT.2020
Transfer characteristics : PQ
Matrix coefficients : BT.2020 non-constant
Mastering display color pri : Display P3
Mastering display luminance : min: 0.0050 cd/m2, max: 4000 cd/m2
Maximum Content Light Level : 1000 cd/m2
Maximum Frame-Average Light : 755 cd/m2

Audio #1
ID : 2
Format : DTS
Format/Info : Digital Theater Systems
Codec ID : A_DTS
Duration : 1 h 56 min
Bit rate mode : Constant
Bit rate : 768 kb/s
Channel(s) : 6 channels
Channel layout : C L R Ls Rs LFE
Sampling rate : 48.0 kHz
Frame rate : 93.750 FPS (512 SPF)
Bit depth : 24 bits
Compression mode : Lossy
Stream size : 637 MiB (0%)
Title : Дубляж [License]
Language : Russian
Default : Yes
Forced : Yes

Audio #2
ID : 3
Format : AC-3
Format/Info : Audio Coding 3
Commercial name : Dolby Digital
Codec ID : A_AC3
Duration : 1 h 56 min
Bit rate mode : Constant
Bit rate : 448 kb/s
Channel(s) : 6 channels
Channel layout : L R C LFE Ls Rs
Sampling rate : 48.0 kHz
Frame rate : 31.250 FPS (1536 SPF)
Compression mode : Lossy
Stream size : 372 MiB (0%)
Title : Дубляж [License]
Language : Russian
Service kind : Complete Main
Default : No
Forced : No

Audio #3
ID : 4
Format : DTS XLL
Format/Info : Digital Theater Systems
Commercial name : DTS-HD Master Audio
Codec ID : A_DTS
Duration : 1 h 56 min
Bit rate mode : Variable
Bit rate : 4 261 kb/s
Channel(s) : 6 channels
Channel layout : C L R Ls Rs LFE
Sampling rate : 48.0 kHz
Frame rate : 93.750 FPS (512 SPF)
Bit depth : 24 bits
Compression mode : Lossless
Stream size : 3.46 GiB (3%)
Title : [AVO] Гаврилов Андрей (ранний)
Language : Russian
Default : No
Forced : No

Audio #4
ID : 5
Format : DTS XLL
Format/Info : Digital Theater Systems
Commercial name : DTS-HD Master Audio
Codec ID : A_DTS
Duration : 1 h 56 min
Bit rate mode : Variable
Bit rate : 4 237 kb/s
Channel(s) : 6 channels
Channel layout : C L R Ls Rs LFE
Sampling rate : 48.0 kHz
Frame rate : 93.750 FPS (512 SPF)
Bit depth : 24 bits
Compression mode : Lossless
Stream size : 3.44 GiB (3%)
Title : [AVO] Гаврилов Андрей (поздний)
Language : Russian
Default : No
Forced : No

Audio #5
ID : 6
Format : DTS XLL
Format/Info : Digital Theater Systems
Commercial name : DTS-HD Master Audio
Codec ID : A_DTS
Duration : 1 h 56 min
Bit rate mode : Variable
Bit rate : 4 235 kb/s
Channel(s) : 6 channels
Channel layout : C L R Ls Rs LFE
Sampling rate : 48.0 kHz
Frame rate : 93.750 FPS (512 SPF)
Bit depth : 24 bits
Compression mode : Lossless
Stream size : 3.43 GiB (3%)
Title : [AVO] Михалёв Алексей
Language : Russian
Default : No
Forced : No

Audio #6
ID : 7
Format : DTS XLL
Format/Info : Digital Theater Systems
Commercial name : DTS-HD Master Audio
Codec ID : A_DTS
Duration : 1 h 56 min
Bit rate mode : Variable
Bit rate : 4 240 kb/s
Channel(s) : 6 channels
Channel layout : C L R Ls Rs LFE
Sampling rate : 48.0 kHz
Frame rate : 93.750 FPS (512 SPF)
Bit depth : 24 bits
Compression mode : Lossless
Stream size : 3.44 GiB (3%)
Title : [AVO] Горчаков Василий
Language : Russian
Default : No
Forced : No

Audio #7
ID : 8
Format : DTS XLL
Format/Info : Digital Theater Systems
Commercial name : DTS-HD Master Audio
Codec ID : A_DTS
Duration : 1 h 56 min
Bit rate mode : Variable
Bit rate : 3 884 kb/s
Channel(s) : 6 channels
Channel layout : C L R Ls Rs LFE
Sampling rate : 48.0 kHz
Frame rate : 93.750 FPS (512 SPF)
Bit depth : 24 bits
Compression mode : Lossless
Stream size : 3.15 GiB (3%)
Title : [AVO] Дубровин Владимир
Language : Russian
Default : No
Forced : No

Audio #8
ID : 9
Format : DTS XLL
Format/Info : Digital Theater Systems
Commercial name : DTS-HD Master Audio
Codec ID : A_DTS
Duration : 1 h 56 min
Bit rate mode : Variable
Bit rate : 4 232 kb/s
Channel(s) : 6 channels
Channel layout : C L R Ls Rs LFE
Sampling rate : 48.0 kHz
Frame rate : 93.750 FPS (512 SPF)
Bit depth : 24 bits
Compression mode : Lossless
Stream size : 3.43 GiB (3%)
Title : [AVO] Неизвестный [неполный]
Language : Russian
Default : No
Forced : No

Audio #9
ID : 10
Format : DTS XLL
Format/Info : Digital Theater Systems
Commercial name : DTS-HD Master Audio
Codec ID : A_DTS
Duration : 1 h 56 min
Bit rate mode : Variable
Bit rate : 4 257 kb/s
Channel(s) : 6 channels
Channel layout : C L R Ls Rs LFE
Sampling rate : 48.0 kHz
Frame rate : 93.750 FPS (512 SPF)
Bit depth : 24 bits
Compression mode : Lossless
Stream size : 3.45 GiB (3%)
Title : [AVO] Переговорщик Гаврилова-раннего
Language : Russian
Default : No
Forced : No

Audio #10
ID : 11
Format : DTS XLL
Format/Info : Digital Theater Systems
Commercial name : DTS-HD Master Audio
Codec ID : A_DTS
Duration : 1 h 56 min
Bit rate mode : Variable
Bit rate : 4 255 kb/s
Channel(s) : 6 channels
Channel layout : C L R Ls Rs LFE
Sampling rate : 48.0 kHz
Frame rate : 93.750 FPS (512 SPF)
Bit depth : 24 bits
Compression mode : Lossless
Stream size : 3.45 GiB (3%)
Title : AVO [Сербин Юрий]
Language : Russian
Default : No
Forced : No

Audio #11
ID : 12
Format : DTS XLL
Format/Info : Digital Theater Systems
Commercial name : DTS-HD Master Audio
Codec ID : A_DTS
Duration : 1 h 56 min
Bit rate mode : Variable
Bit rate : 4 250 kb/s
Channel(s) : 6 channels
Channel layout : C L R Ls Rs LFE
Sampling rate : 48.0 kHz
Frame rate : 93.750 FPS (512 SPF)
Bit depth : 24 bits
Compression mode : Lossless
Stream size : 3.44 GiB (3%)
Title : AVO [Дохалов Вартан]
Language : Russian
Default : No
Forced : No

Audio #12
ID : 13
Format : DTS XLL
Format/Info : Digital Theater Systems
Commercial name : DTS-HD Master Audio
Codec ID : A_DTS
Duration : 1 h 56 min
Bit rate mode : Variable
Bit rate : 4 234 kb/s
Channel(s) : 6 channels
Channel layout : C L R Ls Rs LFE
Sampling rate : 48.0 kHz
Frame rate : 93.750 FPS (512 SPF)
Bit depth : 24 bits
Compression mode : Lossless
Stream size : 3.43 GiB (3%)
Title : [DVO] Гланц Пётр+Лютая Евгения (псевдо-дубляж)
Language : Russian
Default : No
Forced : No

Audio #13
ID : 14
Format : DTS XLL
Format/Info : Digital Theater Systems
Commercial name : DTS-HD Master Audio
Codec ID : A_DTS
Duration : 1 h 56 min
Bit rate mode : Variable
Bit rate : 3 879 kb/s
Channel(s) : 6 channels
Channel layout : C L R Ls Rs LFE
Sampling rate : 48.0 kHz
Frame rate : 93.750 FPS (512 SPF)
Bit depth : 24 bits
Compression mode : Lossless
Stream size : 3.15 GiB (3%)
Title : [DVO] Тарадайкин Игорь+Германова Любовь [Премьер-видео]
Language : Russian
Default : No
Forced : No

Audio #14
ID : 15
Format : DTS XLL
Format/Info : Digital Theater Systems
Commercial name : DTS-HD Master Audio
Codec ID : A_DTS
Duration : 1 h 56 min
Bit rate mode : Variable
Bit rate : 4 238 kb/s
Channel(s) : 6 channels
Channel layout : C L R Ls Rs LFE
Sampling rate : 48.0 kHz
Frame rate : 93.750 FPS (512 SPF)
Bit depth : 24 bits
Compression mode : Lossless
Stream size : 3.44 GiB (3%)
Title : [MVO] Стрелков Станислав+Божок Татьяна [Киномания] [DDV] [Biz video]
Language : Russian
Default : No
Forced : No

Audio #15
ID : 16
Format : DTS XLL
Format/Info : Digital Theater Systems
Commercial name : DTS-HD Master Audio
Codec ID : A_DTS
Duration : 1 h 56 min
Bit rate mode : Variable
Bit rate : 3 898 kb/s
Channel(s) : 6 channels
Channel layout : C L R Ls Rs LFE
Sampling rate : 48.0 kHz
Frame rate : 93.750 FPS (512 SPF)
Bit depth : 24 bits
Compression mode : Lossless
Stream size : 3.16 GiB (3%)
Title : [MVO] Стрелков Станислав+Зотов Константин+Женщина [FDV]
Language : Russian
Default : No
Forced : No

Audio #16
ID : 17
Format : DTS XLL
Format/Info : Digital Theater Systems
Commercial name : DTS-HD Master Audio
Codec ID : A_DTS
Duration : 1 h 56 min
Bit rate mode : Variable
Bit rate : 4 236 kb/s
Channel(s) : 6 channels
Channel layout : C L R Ls Rs LFE
Sampling rate : 48.0 kHz
Frame rate : 93.750 FPS (512 SPF)
Bit depth : 24 bits
Compression mode : Lossless
Stream size : 3.43 GiB (3%)
Title : [MVO] Карусель
Language : Russian
Default : No
Forced : No

Audio #17
ID : 18
Format : DTS XLL
Format/Info : Digital Theater Systems
Commercial name : DTS-HD Master Audio
Codec ID : A_DTS
Duration : 1 h 56 min
Bit rate mode : Variable
Bit rate : 3 885 kb/s
Channel(s) : 6 channels
Channel layout : C L R Ls Rs LFE
Sampling rate : 48.0 kHz
Frame rate : 93.750 FPS (512 SPF)
Bit depth : 24 bits
Compression mode : Lossless
Stream size : 3.15 GiB (3%)
Title : [DVO] Андреев Вадим+Гнилова Людмила [НТВ=СТС]
Language : Russian
Default : No
Forced : No

Audio #18
ID : 19
Format : DTS XLL
Format/Info : Digital Theater Systems
Commercial name : DTS-HD Master Audio
Codec ID : A_DTS
Duration : 1 h 56 min
Bit rate mode : Variable
Bit rate : 3 889 kb/s
Channel(s) : 6 channels
Channel layout : C L R Ls Rs LFE
Sampling rate : 48.0 kHz
Frame rate : 93.750 FPS (512 SPF)
Bit depth : 24 bits
Compression mode : Lossless
Stream size : 3.15 GiB (3%)
Title : [MVO] Форостенко Олег+Филимонов Дмитрий+Казанцев Андрей+Никонова Жанна [ОРТ]
Language : Russian
Default : No
Forced : No

Audio #19
ID : 20
Format : DTS XLL
Format/Info : Digital Theater Systems
Commercial name : DTS-HD Master Audio
Codec ID : A_DTS
Duration : 1 h 56 min
Bit rate mode : Variable
Bit rate : 4 240 kb/s
Channel(s) : 6 channels
Channel layout : C L R Ls Rs LFE
Sampling rate : 48.0 kHz
Frame rate : 93.750 FPS (512 SPF)
Bit depth : 24 bits
Compression mode : Lossless
Stream size : 3.44 GiB (3%)
Title : [1+1]
Language : Ukrainian
Default : No
Forced : No

Audio #20
ID : 21
Format : DTS XLL
Format/Info : Digital Theater Systems
Commercial name : DTS-HD Master Audio
Codec ID : A_DTS
Duration : 1 h 56 min
Bit rate mode : Variable
Bit rate : 4 240 kb/s
Channel(s) : 6 channels
Channel layout : C L R Ls Rs LFE
Sampling rate : 48.0 kHz
Frame rate : 93.750 FPS (512 SPF)
Bit depth : 24 bits
Compression mode : Lossless
Stream size : 3.44 GiB (3%)
Title : [Новый канал]
Language : Ukrainian
Default : No
Forced : No

Audio #21
ID : 22
Format : MLP FBA 16-ch
Format/Info : Meridian Lossless Packing FBA with 16-channel presentation
Commercial name : Dolby TrueHD with Dolby Atmos
Codec ID : A_TRUEHD
Duration : 1 h 56 min
Bit rate mode : Variable
Bit rate : 4 213 kb/s
Maximum bit rate : 7 626 kb/s
Channel(s) : 8 channels
Channel layout : L R C LFE Ls Rs Lb Rb
Sampling rate : 48.0 kHz
Frame rate : 1 200.000 FPS (40 SPF)
Compression mode : Lossless
Stream size : 3.41 GiB (3%)
Title : Original
Language : English
Default : No
Forced : No
Number of dynamic objects : 11
Bed channel count : 1 channel
Bed channel configuration : LFE

Audio #22
ID : 23
Format : AC-3
Format/Info : Audio Coding 3
Commercial name : Dolby Digital
Codec ID : A_AC3
Duration : 1 h 56 min
Bit rate mode : Constant
Bit rate : 448 kb/s
Channel(s) : 6 channels
Channel layout : L R C LFE Ls Rs
Sampling rate : 48.0 kHz
Frame rate : 31.250 FPS (1536 SPF)
Compression mode : Lossy
Stream size : 372 MiB (0%)
Language : English
Service kind : Complete Main
Default : No
Forced : No

Text #1
ID : 24
Format : UTF-8
Codec ID : S_TEXT/UTF8
Codec ID/Info : UTF-8 Plain Text
Duration : 1 h 50 min
Bit rate : 93 b/s
Count of elements : 1352
Stream size : 75.3 KiB (0%)
Title : Full
Language : Russian
Default : No
Forced : No

Text #2
ID : 25
Format : UTF-8
Codec ID : S_TEXT/UTF8
Codec ID/Info : UTF-8 Plain Text
Duration : 1 h 50 min
Bit rate : 62 b/s
Count of elements : 1573
Stream size : 50.1 KiB (0%)
Title : Full
Language : English
Default : No
Forced : No

Menu
00:00:00.000 : en:Main Titles
00:04:13.545 : en:Late for School
00:06:47.282 : en:The Slacker
00:11:45.246 : en:The Family McFly
00:18:04.166 : en:A Time Machine?
00:28:12.274 : en:Escape to the Past
00:31:30.680 : en:1955
00:38:40.693 : en:Dad the Dork
00:41:22.313 : en:Calvin & Lorraine
00:47:53.370 : en:Future Boy & Doc
00:55:53.141 : en:Marty's Problem
00:58:49.860 : en:The Matchmaker
01:05:16.788 : en:Skateboard Hero
01:16:40.304 : en:The Big Date
01:20:14.643 : en:The Real George
01:27:23.321 : en:Johnny B. Goode
01:31:12.050 : en:Back to the Future
01:41:40.553 : en:Doc's Decision
01:46:41.437 : en:Future Shock
01:51:24.511 : en:Roads? (Credits)




Скачать Назад в будущее через торрент https://b.radikal.ru/b22/2010/84/02e67f397761.jpg Скачать, смотреть онлайн Назад в будущее бесплантно в хорошем качестве Описание: Марти МакФлай с помощью машины времени, сооруженной его другом профессором доком Брауном, попадает из 80-х в далекие 50-е. Там он ... 9 10 9
Info! Золотая раздача, скачанное не засчитывается.
Торрент: Зарегистрирован [2020-10-12 10:14] · скачан: 54 раз
Статус: √ проверено
Размер: 124.66 GB
Как cкачать? Как скачать Назад в будущее через торрент | UTorrent

% Раздел Тема Автор DL S | L
Ultra HD (UHD: 2K, 4K, 8K) [ 128.96 GB ] Назад в Будущее 2 / Back to the Future 2 | Лицензия | 2160p bober100 Скачать
1 | 0
Фильмы (Blu-ray, BD-Remux, HDDVD) [ 90.24 GB ] Назад в будущее / Back to the Future | DUB + 7xAVO+ 5xDVO +2xMVO + 2xUKR + Sub rus + original eng; Бонусы | 1080p Messa-fan Скачать
1 | 1
Фильмы (Blu-ray, BD-Remux, HDDVD) [ 80.65 GB ] Назад в будущее 3 / Back to the Future 3 | DUB + 5xAVO+ 4xDVO +2xMVO + 2xUKR + Sub rus + original eng; Бонусы | 1080p Messa-fan Скачать
1 | 0
Фильмы (Blu-ray, BD-Remux, HDDVD) [ 96.39 GB ] Назад в будущее 2 / Back to the Future 2 | DUB + 9xAVO+ 5xDVO +2xMVO + 3xUKR + Sub rus + original eng; Бонусы | 1080p Messa-fan Скачать
1 | 1

28-11-2019 20:33  


Отключить вcю реклaмy на сайте, в т.ч. и в плеере онлайн просмотра!

12-10-2020 11:44 Назад в будущее Скачать торрент  

один самых самых моих любимых фильмов,вернее самый самый любимый



15-10-2020 14:43 Назад в будущее Скачать торрент  

Фильм хороший, но картинка по скринам до 4K UHD явно не дотягивает...



    Дорогой пользователь! Огромная просьба, поблагодарите релизера, оцените раздачу и оставьте свои комментарий, если Вы скачали Назад в будущее через торрент бесплатно!!
    Комментировать посты могут только пользователи прошедшие не сложную регистрацию
    Показать сообщения:    


    Назад в будущее через торрент
    Скачать бесплатно Назад в будущее
    Назад в будущее скачать торрент
    Назад в будущее смотреть онлайн
    Cкачать фильм Назад в будущее бесплатно
    Назад в будущее скачать торрент в хорошем качестве
    Назад в будущее смотреть онлайн бесплатно в хорошем качестве
    Вы не можете начинать темы
    Вы не можете отвечать на сообщения
    Вы не можете редактировать свои сообщения
    Вы не можете удалять свои сообщения
    Вы не можете голосовать в опросах
    Вы не можете прикреплять файлы к сообщениям
    Вы можете скачивать файлы
    Назад в будущее / Back to the Future [1985, Фантастика, комедия, приключения, UHD BDRemux 2160p] Дубляж [Лицензия] +4xMVO+3xDVO+8xAVO смотреть онлайн, скачать торрент picoco.icu