1 сезон

3 сезон

iTunes

1

iTunes

DUB Netflix

iTunes

13

1 сезон

RePack

30

Deluxe

pack

Легкие деньги

ВАЖНО

ИГРА 18+

pack

RePack

MK11

RePack

jed

RePack

fifa19

RePack

RDR2

RePack

NEED FOR SPEED™ PAYBACK

4 сезон

9 сезон

Бесстыжие 9 сезон

Все сериалы

все сериалы на PB.wtf

RePack

FAR CRY 5

Anonymous, доброй ночи, мы не успеваем до 1 числа собрать деньги на оплату серверов, помогите нам пожалуйста в это трудное время. В качестве благодарности мы отключим Вам всю рекламу на сайте (укажите свой ник в строку Ваше имя)!

×
  
Magnet ссылка

Территория / Сезон: 1 / Серии: 1-7 из 7 (Игорь Твердохлебов) [2020, Драма, мистика, SATRip] piratbit.org

Территория через торрент piratbit.org

Размер: 4.3 GB | Добавлен: 7 мес. назад | Торрент скачан:102 раза
Скачать  

12-10-2020 13:26 Территория Скачать торрент  

Территория
Год выпуска: 2020
Страна: Россия
Выпущено: Good Story Media по заказу ТНТ
Жанр: Драма, мистика
Продолжительность: ~ 00:52:00
Перевод: Не требуется
Субтитры: отсутствуют

Режиссер: Игорь Твердохлебов



В ролях: Андрей Мерзликин, Глеб Калюжный, Анастасия Чистякова (II), Алексей Розин, Ксения Отинова, Клавдия Коршунова, Николай Шрайбер, Сергей Колесов, Евгений Мундум, Константин Итунин, Олег Ягодин, Алексей Корсуков, Вера Чугайнова, Михаил Орлов (II), Кирилл Лепихин, Елена Стражникова, Виктор Сосновцев, Александр Федосеев (II), Анна Синякина, Владимир Селезнёв (II)

Описание: 19-летний Егор Чудинов отправляется на поиски родителей, которые пропали во время этнографической экспедиции по Пермскому краю. Вместе со своим дядей Николаем и двумя случайными попутчицами — студентками-филологами Таней и Надей — Егор продвигается вглубь территории, которая живет по своим законам и традициям. Здесь мрачная природа, здесь в землянках живут отшельники, а болезни лечат у колдунов, и где-то среди дремучих лесов бродит медвежий шаман. Вначале Егор скептически относится к рассказам о древних существах коми-пермяцкой мифологии, которые могут обитать в этих краях, но постепенно он понимает, что мир намного шире его представлений. С каждым днем и с каждым рискованным приключением Егор получает знаки остановиться и не переступать черту. Но желание найти родных и разгадать давно терзающую его тайну прошлого оказывается сильнее.

Качество: SATRip
Формат: AVI

Видео: 704x352 (2.00:1), 25 fps, XviD build 73 ~1674 kbps avg, 0.27 bit/pixel
Аудио: 48 kHz, MPEG Layer 3, 2 ch, ~192.00 kbps avg
скриншот  скриншот  скриншот  скриншот  

Общее
Полное имя : C:\Territoriya.2020.XviD.SATRip.25Kuzmich\Territoriya.s01.e01.XviD.SATRip.25Kuzmich.avi
Формат : AVI
Формат/Информация : Audio Video Interleave
Размер файла : 699 Мбайт
Продолжительность : 52 м. 7 с.
Общий поток : 1876 Кбит/сек
Программа кодирования : VirtualDubMod 1.5.10.3 (build 2550/release)
Библиотека кодирования : VirtualDubMod build 2550/release

Видео
Идентификатор : 0
Формат : MPEG-4 Visual
Профиль формата : Advanced Simple@L5
Настройки формата : BVOP1
Параметр BVOP формата : 1
Параметр QPel формата : Нет
Параметр GMC формата : Без точки перехода
Параметр матрицы формата : Default (MPEG)
Идентификатор кодека : XVID
Идентификатор кодека/Подсказка : XviD
Продолжительность : 52 м. 7 с.
Битрейт : 1641 Кбит/сек
Ширина : 704 пикселя
Высота : 352 пикселя
Соотношение сторон : 2,000
Частота кадров : 25,000 кадров/сек
Цветовое пространство : YUV
Субдискретизация насыщенности : 4:2:0
Битовая глубина : 8 бит
Тип развёртки : Прогрессивная
Метод сжатия : С потерями
Бит/(Пиксели*Кадры) : 0.258
Размер потока : 597 Мбайт (85%)
Библиотека кодирования : XviD 73

Аудио
Идентификатор : 1
Формат : MPEG Audio
Версия формата : Version 1
Профиль формата : Layer 3
Настройки формата : Joint stereo
Идентификатор кодека : 55
Идентификатор кодека/Подсказка : MP3
Продолжительность : 52 м. 7 с.
Вид битрейта : Постоянный
Битрейт : 192 Кбит/сек
Каналы : 2 канала
Частота : 48,0 КГц
Частота кадров : 41,667 кадра/сек (1152 SPF)
Метод сжатия : С потерями
Размер потока : 71,6 Мбайт (10%)
Выравнивание : Соединение по промежуткам
Библиотека кодирования : LAME3.99r
Настройки программы : -m j -V 4 -q 2 -lowpass 18.6 -b 192

Внимание! Раздача ведётся путём добавления новых серий; при каждом добавлении создаётся новый торрент.
Чтобы начать докачку новой серии, пользователям необходимо сделать следующее:
1. Остановить скачивание;
2. Удалить старый торрент у себя из клиента (старые серии удалять не надо);
3. Скачать новый торрент и запустить его у себя в клиенте вместо старого, при этом указать клиенту путь в старую папку куда и должно происходить скачивание новых серий. Ваш клиент при этом должен произвести хеширование (проверку) старой папки и будет докачивать только те серии, которых у вас ещё нет. Старые серии при этом не удаляются, а продолжают раздаваться! Eсли вы уже удалили старые серии, то предотвратить повторную закачку старых серий можно, отжав галочку в соответствующих местах при запуске нового торрента.

piratbit.org



Скачать Территория через торрент https://img11.lostpic.net/2020/10/12/75e75e272a5ce335d308d6a983b7994e.jpg Скачать фильм Территория через торрент бесплантно в хорошем качестве Описание: 19-летний Егор Чудинов отправляется на поиски родителей, которые пропали во время этнографической экспедиции по Пермскому краю. ... 10 10 11
Торрент: Зарегистрирован [2020-10-21 15:41] · скачан: 102 раз
Статус: √ проверено
Размер: 4.3 GB
Как cкачать? Как скачать Территория через торрент | UTorrent

% Раздел Тема Автор DL S | L
TNT serials [ 10.16 GB ] Территория / Сезон: 1 / Серии: 1-7 из 7 [2020 WEBRip 1080p ] bober100 Скачать
8 | 2
TNT serials [ 3.97 GB ] Территория / Сезон: 1 / Серии: 1-7 из 7 [2020 WEBRip-AVC] bober100 Скачать
2 | 1
TNT serials [ 11.61 GB ] Территория / Сезон: 1 / Серии: 1-7 из 7 [2020 HDTV 1080i] bober100 Скачать
1 | 0
TNT serials [ 6.95 GB ] Территория / Сезон: 1 / Серии: 1-7 из 7 [2020 WEBRip 720p ] bober100 Скачать
5 | 0
TNT serials [ 4.1 GB ] Территория / Сезон: 1 / Серии: 1-7 из 7 [2020 WEBRip ] bober100 Скачать
4 | 0


Последний раз редактировалось: bober100 (2020-10-21 20:23), всего редактировалось 9 раз(а)

28-11-2019 20:33  

Отключить всю рекламу на сайте

12-10-2020 13:49 Территория Скачать торрент  

как сериал ребята?piratbit.org



12-10-2020 15:28 Территория Скачать торрент  

Одна серия всего?piratbit.org



20-10-2020 18:50 Территория Скачать торрент  

Норм Сериал!!! piratbit.org



    Дорогой пользователь! Огромная просьба, поблагодарите релизера, оцените раздачу и оставьте свои комментарий, если Вы скачали Территория через торрент бесплатно! Внесите свою лепту в развитие PiratBit!
    Комментировать посты могут только пользователи прошедшие не сложную регистрацию
    Показать сообщения:    

    Территория через торрент
    Скачать бесплатно Территория
    Территория скачать торрент
    Территория смотреть онлайн
    Cкачать фильм Территория бесплатно
    Территория скачать торрент в хорошем качестве
    Территория смотреть онлайн бесплатно в хорошем качестве


    Вы не можете начинать темы
    Вы не можете отвечать на сообщения
    Вы не можете редактировать свои сообщения
    Вы не можете удалять свои сообщения
    Вы не можете голосовать в опросах
    Вы не можете прикреплять файлы к сообщениям
    Вы можете скачивать файлы