1 сезон

1 сезон

iTunes

1

КиноПоиск HD

Кинопоиск HD

iTunes

13

1 сезон

RePack

30

Новинка

ВАЖНО

ИГРА 18+

pack

RePack

MK11
pack

Легкие деньги

RePack

jed

RePack

fifa19

RePack

RDR2

RePack

NEED FOR SPEED™ PAYBACK

4 сезон

9 сезон

Бесстыжие 9 сезон

Все сериалы

все сериалы на PB.wtf

RePack

FAR CRY 5
  
Magnet ссылка

Оборотень / The Wolf of Snow Hollow (Джим Каммингс) [2020, Ужасы, комедия, детектив, HDRip-AVC] DUB [iTunes] от MediaBit piratbit.org

Оборотень через торрент piratbit.org

Раздают: 9 [ 9 KB/s ]
Размер: 2.36 GB | Добавлен: 15 д. назад | Торрент скачан:173 раза
Скачать  

12-10-2020 18:47 Оборотень Скачать торрент  


Оборотень / The Wolf of Snow Hollow
Информация о фильме:
Название: Оборотень
Оригинальное название: The Wolf of Snow Hollow
Год выхода: 2020
Жанр: Ужасы, комедия, детектив
Режиссер: Джим Каммингс

В ролях: Джим Каммингс, Рики Линдхоум, Роберт Форстер, Хлоя Ист, Джимми Татро, Маршалл Оллман, Лаура Кувер, Энни Хэмилтон, Джессика Парк, Келси Эдвардс

Описание: Ужас охватывает небольшой городок, когда в нем после каждого полнолуния находят растерзанные жертвы. Местный офицер полиции, расследуя это дело, верит только фактам и не верит в сказки, но улики неумолимо указывают на то, что это дело рук оборотня...



Страна: США
Студия: Vanishing Angle, New Form
Продолжительность: 01:24:43
Перевод RUS, UKR: Дублированный - iTunes



Информация о файле:
Кодек: AVC
Формат: MKV
Качество: WEB-DLRip-AVC
Видео: MPEG-4 AVC, 1024x554, 23.976 fps, 2765 kbps
Аудио RU: AC3, 6 ch, 48 kHz, 384 kbps
Аудио UKR: AC3, 6 ch, 48 kHz, 384 kbps
Аудио EN: AC3, 6 ch, 48 kHz, 448 kbps
Субтитры: Английские

x264 info: frame I:922 Avg QP:10.22 size:109295
x264 info: frame P:25154 Avg QP:13.23 size: 34003
x264 info: frame B:95814 Avg QP:16.16 size: 8354
General
Unique ID : 274856953853166710537493625232567003446 (0xCEC78616C431B32AD12769C9DDD76936)
Complete name : D:uTorrentРипы_от_wolf1245_MediaBitThe Wolf of Snow Hollow.2020.DUB.HDRip-AVC.[wolf1245.MediaBit].mkv
Format : Matroska
Format version : Version 4
File size : 2.36 GiB
Duration : 1 h 24 min
Overall bit rate : 3 983 kb/s
Movie name : The Wolf of Snow Hollow.2020.DUB.HDRip-AVC.[wolf1245.MediaBit]
Encoded date : UTC 2021-04-05 10:39:15
Writing application : mkvmerge v55.0.0 ('Waiting For Space') 64-bit
Writing library : libebml v1.4.2 + libmatroska v1.6.4
Video
ID : 1
Format : AVC
Format/Info : Advanced Video Codec
Format profile : High@L4.1
Format settings : CABAC / 12 Ref Frames
Format settings, CABAC : Yes
Format settings, Reference frames : 12 frames
Codec ID : V_MPEG4/ISO/AVC
Duration : 1 h 24 min
Bit rate : 2 765 kb/s
Width : 1 024 pixels
Height : 554 pixels
Display aspect ratio : 1.85:1
Frame rate mode : Constant
Frame rate : 23.976 (24000/1001) FPS
Color space : YUV
Chroma subsampling : 4:2:0
Bit depth : 8 bits
Scan type : Progressive
Bits/(Pixel*Frame) : 0.203
Stream size : 1.64 GiB (69%)
Title : .[wolf1245.MediaBit]
Writing library : x264 core 157 r2958 57baac4
Encoding settings : cabac=1 / ref=12 / deblock=1:-3:-2 / analyse=0x3:0x133 / me=umh / subme=11 / psy=1 / psy_rd=1.00:0.05 / mixed_ref=1 / me_range=48 / chroma_me=1 / trellis=2 / 8x8dct=1 / cqm=0 / deadzone=21,11 / fast_pskip=1 / chroma_qp_offset=-3 / threads=10 / lookahead_threads=2 / sliced_threads=0 / nr=0 / decimate=1 / interlaced=0 / bluray_compat=0 / constrained_intra=0 / bframes=10 / b_pyramid=2 / b_adapt=2 / b_bias=0 / direct=3 / weightb=1 / open_gop=0 / weightp=2 / keyint=240 / keyint_min=24 / scenecut=40 / intra_refresh=0 / rc_lookahead=60 / rc=2pass / mbtree=1 / bitrate=2765 / ratetol=1.0 / qcomp=0.60 / qpmin=0 / qpmax=69 / qpstep=4 / cplxblur=20.0 / qblur=0.5 / vbv_maxrate=50000 / vbv_bufsize=62500 / nal_hrd=none / filler=0 / ip_ratio=1.40 / aq=1:0.80
Language : English
Default : Yes
Forced : No
Color range : Limited
Color primaries : BT.709
Transfer characteristics : BT.709
Matrix coefficients : BT.709
Audio #1
ID : 2
Format : AC-3
Format/Info : Audio Coding 3
Commercial name : Dolby Digital
Codec ID : A_AC3
Duration : 1 h 24 min
Bit rate mode : Constant
Bit rate : 384 kb/s
Channel(s) : 6 channels
Channel layout : L R C LFE Ls Rs
Sampling rate : 48.0 kHz
Frame rate : 31.250 FPS (1536 SPF)
Bit depth : 32 bits
Compression mode : Lossy
Stream size : 233 MiB (10%)
Title : DUB (iTunes)
Language : Russian
Service kind : Complete Main
Default : Yes
Forced : No
Audio #2
ID : 3
Format : AC-3
Format/Info : Audio Coding 3
Commercial name : Dolby Digital
Codec ID : A_AC3
Duration : 1 h 24 min
Bit rate mode : Constant
Bit rate : 384 kb/s
Channel(s) : 6 channels
Channel layout : L R C LFE Ls Rs
Sampling rate : 48.0 kHz
Frame rate : 31.250 FPS (1536 SPF)
Bit depth : 32 bits
Compression mode : Lossy
Stream size : 233 MiB (10%)
Title : DUB (iTunes)
Language : Ukrainian
Service kind : Complete Main
Default : No
Forced : No
Audio #3
ID : 4
Format : AC-3
Format/Info : Audio Coding 3
Commercial name : Dolby Digital
Codec ID : A_AC3
Duration : 1 h 24 min
Bit rate mode : Constant
Bit rate : 448 kb/s
Channel(s) : 6 channels
Channel layout : L R C LFE Ls Rs
Sampling rate : 48.0 kHz
Frame rate : 31.250 FPS (1536 SPF)
Bit depth : 32 bits
Compression mode : Lossy
Stream size : 272 MiB (11%)
Title : Original
Language : English
Service kind : Complete Main
Default : No
Forced : No
Text #1
ID : 5
Format : UTF-8
Codec ID : S_TEXT/UTF8
Codec ID/Info : UTF-8 Plain Text
Duration : 1 h 16 min
Bit rate : 81 b/s
Count of elements : 1317
Stream size : 45.9 KiB (0%)
Title : Full .srt
Language : English
Default : No
Forced : No
Text #2
ID : 6
Format : UTF-8
Codec ID : S_TEXT/UTF8
Codec ID/Info : UTF-8 Plain Text
Duration : 1 h 16 min
Bit rate : 92 b/s
Count of elements : 1518
Stream size : 52.0 KiB (0%)
Title : SDH .srt
Language : English
Default : No
Forced : No
Menu
00:00:00.000 : :Chapter 01
00:09:36.617 : :Chapter 02
00:19:16.405 : :Chapter 03
00:26:44.352 : :Chapter 04
00:36:27.101 : :Chapter 05
00:46:03.969 : :Chapter 06
00:54:05.742 : :Chapter 07
01:01:42.073 : :Chapter 08
01:10:00.029 : :Chapter 09
01:19:41.985 : :Chapter 10
Релиз от: &
Автор релиза:
piratbit.org



Скачать Оборотень через торрент https://b.radikal.ru/b36/2010/0f/7ff1bc2d5986.jpg Скачать фильм Оборотень через торрент бесплантно в хорошем качестве Описание: Ужас охватывает небольшой городок, когда в нем после каждого полнолуния находят растерзанные жертвы. Местный офицер полиции, ... 9.2 10 19
Торрент: Зарегистрирован [2021-04-05 10:52] · скачан: 173 раз
Статус: √ проверено
Размер: 2.36 GB
Как cкачать? Как скачать Оборотень через торрент | UTorrent

28-11-2019 20:33  

Отключить всю рекламу на сайте

09-04-2021 01:41 Оборотень Скачать торрент  

Последний скрин прям интрига.piratbit.org



    Дорогой пользователь! Огромная просьба, поблагодарите релизера, оцените раздачу и оставьте свои комментарий, если Вы скачали Оборотень через торрент бесплатно! Внесите свою лепту в развитие PiratBit!
    Комментировать посты могут только пользователи прошедшие не сложную регистрацию
    Показать сообщения:    

    Оборотень через торрент
    Скачать бесплатно Оборотень
    Оборотень скачать торрент
    Оборотень смотреть онлайн
    Cкачать фильм Оборотень бесплатно
    Оборотень скачать торрент в хорошем качестве
    Оборотень смотреть онлайн бесплатно в хорошем качестве


    Вы не можете начинать темы
    Вы не можете отвечать на сообщения
    Вы не можете редактировать свои сообщения
    Вы не можете удалять свои сообщения
    Вы не можете голосовать в опросах
    Вы не можете прикреплять файлы к сообщениям
    Вы можете скачивать файлы