1 сезон

3 сезон

iTunes

1

iTunes

DUB Netflix

iTunes

13

1 сезон

RePack

30

Deluxe

pack

Легкие деньги

ВАЖНО

ИГРА 18+

pack

RePack

MK11

RePack

jed

RePack

fifa19

RePack

RDR2

RePack

NEED FOR SPEED™ PAYBACK

4 сезон

9 сезон

Бесстыжие 9 сезон

Все сериалы

все сериалы на PB.wtf

RePack

FAR CRY 5

Anonymous, добрый день, мы не успеваем до 1 числа собрать деньги на оплату серверов, помогите нам пожалуйста в это трудное время. В качестве благодарности мы отключим Вам всю рекламу на сайте (укажите свой ник в строку Ваше имя)!

×
  
Magnet ссылка

Территория / Сезон: 1 / Серии: 1-7 из 7 (Игорь Твердохлебов) [2020, Драма, мистика, WEBRip, (Версия 18+)] piratbit.org

Территория через торрент piratbit.org

Раздают: 3 [ 141 KB/s ]
Размер: 4.1 GB | Добавлен: 7 мес. назад | Торрент скачан:178 раз
Скачать  

13-10-2020 03:30 Территория Скачать торрент  

Территория
Год выпуска: 2020
Страна: Россия
Выпущено: Good Story Media по заказу ТНТ
Жанр: Драма, мистика
Продолжительность: ~ 00:52:00
Перевод: Не требуется
Субтитры: отсутствуют

Режиссер: Игорь Твердохлебов



В ролях: Андрей Мерзликин, Глеб Калюжный, Анастасия Чистякова (II), Алексей Розин, Ксения Отинова, Клавдия Коршунова, Николай Шрайбер, Сергей Колесов, Евгений Мундум, Константин Итунин, Олег Ягодин, Алексей Корсуков, Вера Чугайнова, Михаил Орлов (II), Кирилл Лепихин, Елена Стражникова, Виктор Сосновцев, Александр Федосеев (II), Анна Синякина, Владимир Селезнёв (II)

Описание: 19-летний Егор Чудинов отправляется на поиски родителей, которые пропали во время этнографической экспедиции по Пермскому краю. Вместе со своим дядей Николаем и двумя случайными попутчицами — студентками-филологами Таней и Надей — Егор продвигается вглубь территории, которая живет по своим законам и традициям. Здесь мрачная природа, здесь в землянках живут отшельники, а болезни лечат у колдунов, и где-то среди дремучих лесов бродит медвежий шаман. Вначале Егор скептически относится к рассказам о древних существах коми-пермяцкой мифологии, которые могут обитать в этих краях, но постепенно он понимает, что мир намного шире его представлений. С каждым днем и с каждым рискованным приключением Егор получает знаки остановиться и не переступать черту. Но желание найти родных и разгадать давно терзающую его тайну прошлого оказывается сильнее.

Качество: WEBRip
Формат: AVI

Видео: 704x352 (2.00:1), 25 fps, XviD build 73 ~1377 kbps avg, 0.22 bit/pixel
Аудио: 48.0 kHz, AC3 Dolby Digital, 2/0 (L,R) ch, ~ 192 kbps
скриншот  скриншот  скриншот  скриншот  

General
Complete name : D:\Торрент\Territoriya.2020.WEB-DLRip.25Kuzmich\Territoriya.E01.WEB-DLRip.25Kuzmich.avi
Format : AVI
Format/Info : Audio Video Interleave
File size : 600 MiB
Duration : 53 min 8 s
Overall bit rate : 1 580 kb/s
Writing application : VirtualDubMod 1.5.10.3 | www.virtualdub-fr.org || (build 2550/release)
Writing library : VirtualDubMod build 2550/release

Video
ID : 0
Format : MPEG-4 Visual
Format profile : Advanced Simple@L5
Format settings : BVOP1
Format settings, BVOP : 1
Format settings, QPel : No
Format settings, GMC : No warppoints
Format settings, Matrix : Default (MPEG)
Codec ID : XVID
Codec ID/Hint : XviD
Duration : 53 min 8 s
Bit rate : 1 378 kb/s
Width : 704 pixels
Height : 352 pixels
Display aspect ratio : 2.000
Frame rate : 25.000 FPS
Color space : YUV
Chroma subsampling : 4:2:0
Bit depth : 8 bits
Scan type : Progressive
Compression mode : Lossy
Bits/(Pixel*Frame) : 0.222
Stream size : 524 MiB (87%)
Writing library : XviD 73

Audio
ID : 1
Format : AC-3
Format/Info : Audio Coding 3
Codec ID : 2000
Duration : 53 min 8 s
Bit rate mode : Constant
Bit rate : 192 kb/s
Channel(s) : 2 channels
Channel positions : Front: L R
Sampling rate : 48.0 kHz
Frame rate : 31.250 FPS (1536 SPF)
Bit depth : 16 bits
Compression mode : Lossy
Stream size : 73.0 MiB (12%)
Alignment : Split accross interleaves
Interleave, duration : 40 ms (1.00 video frame)
Interleave, preload duratio : 500 ms
Service kind : Complete Main

Внимание! Раздача ведётся путём добавления новых серий; при каждом добавлении создаётся новый торрент.
Чтобы начать докачку новой серии, пользователям необходимо сделать следующее:
1. Остановить скачивание;
2. Удалить старый торрент у себя из клиента (старые серии удалять не надо);
3. Скачать новый торрент и запустить его у себя в клиенте вместо старого, при этом указать клиенту путь в старую папку куда и должно происходить скачивание новых серий. Ваш клиент при этом должен произвести хеширование (проверку) старой папки и будет докачивать только те серии, которых у вас ещё нет. Старые серии при этом не удаляются, а продолжают раздаваться! Eсли вы уже удалили старые серии, то предотвратить повторную закачку старых серий можно, отжав галочку в соответствующих местах при запуске нового торрента.

piratbit.org



Скачать Территория через торрент https://img11.lostpic.net/2020/10/12/75e75e272a5ce335d308d6a983b7994e.jpg Скачать фильм Территория через торрент бесплантно в хорошем качестве Описание: 19-летний Егор Чудинов отправляется на поиски родителей, которые пропали во время этнографической экспедиции по Пермскому краю. ... 8.2 10 5
Торрент: Зарегистрирован [2020-10-22 02:46] · скачан: 178 раз
Статус: √ проверено
Размер: 4.1 GB
Как cкачать? Как скачать Территория через торрент | UTorrent

% Раздел Тема Автор DL S | L
TNT serials [ 10.16 GB ] Территория / Сезон: 1 / Серии: 1-7 из 7 [2020 WEBRip 1080p ] bober100 Скачать
10 | 1
TNT serials [ 3.97 GB ] Территория / Сезон: 1 / Серии: 1-7 из 7 [2020 WEBRip-AVC] bober100 Скачать
2 | 0
TNT serials [ 4.3 GB ] Территория / Сезон: 1 / Серии: 1-7 из 7 [2020 SATRip] bober100 Скачать
1 | 0
TNT serials [ 11.61 GB ] Территория / Сезон: 1 / Серии: 1-7 из 7 [2020 HDTV 1080i] bober100 Скачать
1 | 0
TNT serials [ 6.95 GB ] Территория / Сезон: 1 / Серии: 1-7 из 7 [2020 WEBRip 720p ] bober100 Скачать
3 | 0

28-11-2019 20:33  

Отключить всю рекламу на сайте

    Дорогой пользователь! Огромная просьба, поблагодарите релизера, оцените раздачу и оставьте свои комментарий, если Вы скачали Территория через торрент бесплатно! Внесите свою лепту в развитие PiratBit!
    Комментировать посты могут только пользователи прошедшие не сложную регистрацию
    Показать сообщения:    

    Территория через торрент
    Скачать бесплатно Территория
    Территория скачать торрент
    Территория смотреть онлайн
    Cкачать фильм Территория бесплатно
    Территория скачать торрент в хорошем качестве
    Территория смотреть онлайн бесплатно в хорошем качестве


    Вы не можете начинать темы
    Вы не можете отвечать на сообщения
    Вы не можете редактировать свои сообщения
    Вы не можете удалять свои сообщения
    Вы не можете голосовать в опросах
    Вы не можете прикреплять файлы к сообщениям
    Вы можете скачивать файлы