Ссылка на приватное зеркало нашего сайта всего за 1$. Внимание количество ограничено!!!

2 сезон

iTunes

1 сезон

1

iTunes

iTunes

iTunes

1 сезон

RePack

30

ИГРА 18+

pack

ВАЖНО

!!Акция!!

Alien_RageХит недели

RePack

MK11
pack

Забери бонус

RePack

jed

!!Акция!!

Alien_Rage

RePack

fifa19

RePack

Assassins Creed: Odyssey

RePack

NEED FOR SPEED™ PAYBACK

4 сезон

9 сезон

Бесстыжие 9 сезон

Все сериалы

все сериалы на PB.wtf

RePack

FAR CRY 5
  

Думай как собака / Think Like a Dog (Джил Джангер) [2020, Фантастика, драма, комедия, семейный, BDRip 720p] DUB [iTunes] piratbit.org

Думай как собака через торрент piratbit.org

Раздают: 9 [ 12 KB/s ]
Размер: 4.07 GB | Добавлен: 3 д. назад | Торрент скачан:50 раз
Скачать  

16-10-2020 10:55 Думай как собака Скачать торрент  

Думай как собака | Think Like a Dog
Год выпуска: 2020
Страна: Китай, США, Великобритания
Студия: Arboretum Productions, M Star International, Mad Chance
Жанр: Фантастика, драма, комедия, семейный
Продолжительность: 01:30:54
Перевод: Дублированный | iTunes
Субтитры: Английские

Режиссер: Джил Джангер

rating

В ролях: Гэбриел Бейтман, Джош Дюамель, Меган Фокс, Мэдисон Хорчер, Минхао Хоу, Исаак Ванг, Диллон Альф, Билли Джонстон, Кунал Найяр, Джанет Монтгомери

Описание: В ходе научного эксперимента 12-летний вундеркинд Оливер устанавливает телепатическую связь с любимым и, как оказалось, очень умным псом Генри. Благодаря подсказкам собаки парню удается решать проблемы в школе, дома и даже с девочками...

Качество: BDRip 720p
Формат: MKV

Видео: MPEG-4 AVC, 1280x692, 5382 Kbit/s, 23.976 fps
Аудио#1: 48 kHz, AC3, 5.1, 384 Kbps | iTunes | RUS |
Аудио#2: 48 kHz, AC3, 5.1, 640 Kbps | Оригинал | ENG |
скриншот  скриншот  скриншот  скриншот  скриншот  

General
Unique ID : 117041270748177595932935267229400537169 (0x580D542CA6664DB31DDF5BC4896B9851)
Complete name : D:Video111Think.Like.a.Dog.2020.BDRip.720p.seleZen.mkv
Format : Matroska
Format version : Version 4
File size : 4.07 GiB
Duration : 1 h 30 min
Overall bit rate : 6 409 kb/s
Movie name : Think Like a Dog 2020 from селезень
Encoded date : UTC 2020-10-15 14:46:30
Writing application : mkvmerge v40.0.0 ('Old Town Road + Pony') 64-bit
Writing library : libebml v1.3.9 + libmatroska v1.5.2

Video
ID : 1
Format : AVC
Format/Info : Advanced Video Codec
Format profile : High@L4.1
Format settings : CABAC / 9 Ref Frames
Format settings, CABAC : Yes
Format settings, Reference : 9 frames
Codec ID : V_MPEG4/ISO/AVC
Duration : 1 h 30 min
Bit rate : 5 382 kb/s
Width : 1 280 pixels
Height : 692 pixels
Display aspect ratio : 1.85:1
Frame rate mode : Constant
Frame rate : 23.976 (24000/1001) FPS
Color space : YUV
Chroma subsampling : 4:2:0
Bit depth : 8 bits
Scan type : Progressive
Bits/(Pixel*Frame) : 0.253
Stream size : 3.42 GiB (84%)
Title : iFT
Writing library : x264 core 161 r3007+56M ~ Encoded by Mocunaman in Portugal
Encoding settings : cabac=1 / ref=9 / deblock=1:-3:-3 / analyse=0x3:0x113 / me=umh / subme=11 / psy=1 / fade_compensate=0.00 / psy_rd=1.00:0.00 / mixed_ref=1 / me_range=48 / chroma_me=1 / trellis=2 / 8x8dct=1 / cqm=0 / deadzone=21, 11 / fast_pskip=0 / chroma_qp_offset=-2 / threads=22 / lookahead_threads=3 / sliced_threads=0 / nr=0 / decimate=0 / interlaced=0 / bluray_compat=0 / constrained_intra=0 / fgo=0 / bframes=8 / b_pyramid=2 / b_adapt=2 / b_bias=0 / direct=3 / weightb=1 / open_gop=0 / weightp=2 / keyint=250 / keyint_min=23 / scenecut=40 / intra_refresh=0 / rc_lookahead=60 / rc=crf / mbtree=0 / crf=17.7000 / qcomp=0.60 / qpmin=0:0:0 / qpmax=69:69:69 / qpstep=4 / vbv_maxrate=62500 / vbv_bufsize=78125 / crf_max=0.0 / nal_hrd=none / filler=0 / ip_ratio=1.30 / pb_ratio=1.20 / aq=3:0.80 / aq-sensitivity=10.00 / aq-factor=1.00:1.00:1.00 / aq2=0 / aq3=0 / zones=106331, 117788, crf=17
Language : English
Default : Yes
Forced : No
Color range : Limited
Color primaries : BT.709
Transfer characteristics : BT.709
Matrix coefficients : BT.709

Audio #1
ID : 2
Format : AC-3
Format/Info : Audio Coding 3
Commercial name : Dolby Digital
Codec ID : A_AC3
Duration : 1 h 30 min
Bit rate mode : Constant
Bit rate : 384 kb/s
Channel(s) : 6 channels
Channel layout : L R C LFE Ls Rs
Sampling rate : 48.0 kHz
Frame rate : 31.250 FPS (1536 SPF)
Compression mode : Lossy
Stream size : 250 MiB (6%)
Title : iTunes
Language : Russian
Service kind : Complete Main
Default : Yes
Forced : Yes

Audio #2
ID : 3
Format : AC-3
Format/Info : Audio Coding 3
Commercial name : Dolby Digital
Codec ID : A_AC3
Duration : 1 h 30 min
Bit rate mode : Constant
Bit rate : 640 kb/s
Channel(s) : 6 channels
Channel layout : L R C LFE Ls Rs
Sampling rate : 48.0 kHz
Frame rate : 31.250 FPS (1536 SPF)
Compression mode : Lossy
Stream size : 416 MiB (10%)
Title : Original
Language : English
Service kind : Complete Main
Default : No
Forced : No

Text #1
ID : 4
Format : UTF-8
Codec ID : S_TEXT/UTF8
Codec ID/Info : UTF-8 Plain Text
Duration : 1 h 24 min
Bit rate : 86 b/s
Count of elements : 1416
Stream size : 53.0 KiB (0%)
Title : Full
Language : English
Default : No
Forced : No

Text #2
ID : 5
Format : UTF-8
Codec ID : S_TEXT/UTF8
Codec ID/Info : UTF-8 Plain Text
Duration : 1 h 25 min
Bit rate : 93 b/s
Count of elements : 1597
Stream size : 59.1 KiB (0%)
Title : SDH
Language : English
Default : No
Forced : No

Menu
00:00:00.000 : en:Chapter 01
00:06:29.222 : en:Chapter 02
00:11:26.102 : en:Chapter 03
00:15:10.493 : en:Chapter 04
00:20:36.277 : en:Chapter 05
00:24:44.942 : en:Chapter 06
00:30:44.259 : en:Chapter 07
00:39:13.560 : en:Chapter 08
00:45:20.718 : en:Chapter 09
00:51:45.602 : en:Chapter 10
00:57:39.581 : en:Chapter 11
00:59:33.779 : en:Chapter 12
01:06:02.458 : en:Chapter 13
01:10:47.410 : en:Chapter 14
01:13:45.630 : en:Chapter 15
01:21:52.741 : en:Chapter 16

piratbit.org



Скачать Думай как собака через торрент https://b.radikal.ru/b07/2010/12/e7b2e1519ebd.jpg Скачать фильм Думай как собака через торрент бесплантно в хорошем качестве Описание: В ходе научного эксперимента 12-летний вундеркинд Оливер устанавливает телепатическую связь с любимым и, как оказалось, очень ... 10 10 2
Торрент: Зарегистрирован [2020-10-16 10:55] · скачан: 50 раз
Статус: √ проверено
Размер: 4.07 GB
Как cкачать? Как скачать Думай как собака через торрент | qTorrent

% Раздел Тема Автор DL S | L
Фильмы (Blu-ray, BD-Remux, HDDVD) [ 17.99 GB ] Думай как собака / Think Like a Dog [2020 BD Remux 1080p] bober100 Скачать
4 | 0
Фильмы 2019-2020 [DVDrip, WEB-DLRip, HDrip] (DUB, MVO) [ 1.44 GB ] Думай как собака / Think Like a Dog [2020 HDRip-AVC] [MVO] от MediaBit Lithuania Скачать
5 | 0
Фильмы [HD 720p, 1080p] (Хороший звук DUB, MVO) [ 9.78 GB ] Думай как собака / Think Like a Dog [2020 BDRip 1080p] killermax2013 Скачать
9 | 0
Фильмы 2019-2020 [DVDrip, WEB-DLRip, HDrip] (DUB, MVO) [ 1.46 GB ] Думай как собака / Think Like a Dog [2020 BDRip] killermax2013 Скачать
10 | 0
Фильмы с украинским озвучиванием [ 1.21 GB ] Думай как собака / Думай як пес / Think Like a Dog [2020 BDRip-AVC] [Ukr DUB] killermax2013 Скачать
3 | 0
Фильмы с украинским озвучиванием [ 5.58 GB ] Думай как собака / Думай як пес / Think Like a Dog [2020 BDRip 720p] [Ukr DUB] killermax2013 Скачать
1 | 0

28-11-2019 20:33  

Отключить всю рекламу на сайте

    Дорогой пользователь! Огромная просьба, поблагодарите релизера, оцените раздачу и оставьте свои комментарий, если Вы скачали Думай как собака через торрент бесплатно! Внесите свою лепту в развитие PiratBit!
    Комментировать посты могут только пользователи прошедшие не сложную регистрацию
    Показать сообщения:    

    Думай как собака через торрент
    Скачать бесплатно Думай как собака
    Думай как собака скачать торрент
    Думай как собака смотреть онлайн
    Cкачать фильм Думай как собака бесплатно
    Думай как собака скачать торрент в хорошем качестве
    Думай как собака смотреть онлайн бесплатно в хорошем качестве


    Вы не можете начинать темы
    Вы не можете отвечать на сообщения
    Вы не можете редактировать свои сообщения
    Вы не можете удалять свои сообщения
    Вы не можете голосовать в опросах
    Вы не можете прикреплять файлы к сообщениям
    Вы можете скачивать файлы