Ссылка на приватное зеркало нашего сайта всего за 1$. Внимание количество ограничено!!!

2 сезон

iTunes

1 сезон

1

iTunes

iTunes

iTunes

1 сезон

RePack

30

ИГРА 18+

pack

ВАЖНО

!!Акция!!

Alien_RageХит недели

RePack

MK11
pack

Забери бонус

RePack

jed

!!Акция!!

Alien_Rage

RePack

fifa19

RePack

Assassins Creed: Odyssey

RePack

NEED FOR SPEED™ PAYBACK

4 сезон

9 сезон

Бесстыжие 9 сезон

Все сериалы

все сериалы на PB.wtf

RePack

FAR CRY 5
  

Господин Дьявол / Il signor Diavolo (Пупи Авати) [2019, Ужасы, триллер, детектив, HDRip-AVC] [DUB] [iTunes] от MediaBit piratbit.org

Господин Дьявол через торрент piratbit.org

Раздают: 2 [ 51 KB/s ]
Размер: 1.43 GB | Добавлен: 6 д. назад | Торрент скачан:52 раза
Скачать  

17-10-2020 06:43 Господин Дьявол Скачать торрент  


Господин Дьявол / Il signor Diavolo
Информация о фильме:
Название: Господин Дьявол
Оригинальное название: Il signor Diavolo
Год выхода: 2019
Жанр: Ужасы, триллер, детектив
Режиссер: Пупи Авати

В ролях: Габриэль Ло Джудиче, Филиппо Франкини, Чезаре Кремонини, Массимо Бонетти, Лино Каполиккьо, Кьяра Казелли, Джанни Кавина, Алессандро Абер, Андреа Ронкато, Ева Антония Гримальди

Описание: Молодой полицейский Фурио Моменте отправляется в регион Венето, чтобы расследовать загадочное и шокирующее преступления: подросток убил одного из своих сверстников, утверждая, что он убил самого дьявола.



Страна: Италия
Студия: Duea Film, Ruggente Film, Rai Cinema
Продолжительность: 01:30:41
Перевод: Дублированный - iTunes



Информация о файле:
Кодек: AVC
Формат: MKV
Качество: HDRip-AVC
Видео: MPEG-4 AVC, 1024x576 (16:9), 24.000 fps, 1882kbps, 0.133
Аудио RU: AC3, 6 ch, 48 kHz, 384 kbps
Навигация по главам: Есть

General
Unique ID : 30287263602668587206236717762662057508 (0x16C91D62EA926BF8E93BE1DAA2D74624)
Complete name : D:uTorrentРипы_от_wolf1245_MediaBitPupi Avati - Il signor Diavolo (2019) from wolf1245 & MediaBit.mkv
Format : Matroska
Format version : Version 4
File size : 1.43 GiB
Duration : 1 h 30 min
Overall bit rate : 2 263 kb/s
Movie name : Pupi Avati - Il signor Diavolo (2019) from wolf1245 & MediaBit
Encoded date : UTC 2020-10-17 06:32:26
Writing application : mkvmerge v51.0.0 ('I Wish') 64-bit
Writing library : libebml v1.4.0 + libmatroska v1.6.2
Video
ID : 1
Format : AVC
Format/Info : Advanced Video Codec
Format profile : High@L4.1
Format settings : CABAC / 12 Ref Frames
Format settings, CABAC : Yes
Format settings, Reference frames : 12 frames
Codec ID : V_MPEG4/ISO/AVC
Duration : 1 h 30 min
Bit rate : 1 882 kb/s
Width : 1 024 pixels
Height : 576 pixels
Display aspect ratio : 16:9
Frame rate mode : Constant
Frame rate : 24.000 FPS
Color space : YUV
Chroma subsampling : 4:2:0
Bit depth : 8 bits
Scan type : Progressive
Bits/(Pixel*Frame) : 0.133
Stream size : 1.19 GiB (83%)
Title : wolf1245 & MediaBit
Writing library : x264 core 157 r2958 57baac4
Encoding settings : cabac=1 / ref=12 / deblock=1:-3:-3 / analyse=0x3:0x133 / me=umh / subme=11 / psy=1 / psy_rd=1.02:0.06 / mixed_ref=1 / me_range=48 / chroma_me=1 / trellis=2 / 8x8dct=1 / cqm=0 / deadzone=21,11 / fast_pskip=0 / chroma_qp_offset=-3 / threads=10 / lookahead_threads=2 / sliced_threads=0 / nr=0 / decimate=0 / interlaced=0 / bluray_compat=0 / constrained_intra=0 / bframes=12 / b_pyramid=2 / b_adapt=2 / b_bias=0 / direct=3 / weightb=1 / open_gop=0 / weightp=2 / keyint=240 / keyint_min=24 / scenecut=40 / intra_refresh=0 / rc_lookahead=60 / rc=2pass / mbtree=0 / bitrate=1882 / ratetol=1.0 / qcomp=0.60 / qpmin=0 / qpmax=69 / qpstep=4 / cplxblur=20.0 / qblur=0.5 / vbv_maxrate=50000 / vbv_bufsize=62500 / nal_hrd=none / filler=0 / ip_ratio=1.40 / pb_ratio=1.30 / aq=2:0.80
Language : Italian
Default : Yes
Forced : No
Color range : Limited
Color primaries : BT.709
Transfer characteristics : BT.709
Matrix coefficients : BT.709
Audio
ID : 2
Format : AC-3
Format/Info : Audio Coding 3
Commercial name : Dolby Digital
Codec ID : A_AC3
Duration : 1 h 30 min
Bit rate mode : Constant
Bit rate : 384 kb/s
Channel(s) : 6 channels
Channel layout : L R C LFE Ls Rs
Sampling rate : 48.0 kHz
Frame rate : 31.250 FPS (1536 SPF)
Compression mode : Lossy
Stream size : 249 MiB (17%)
Title : DUB | iTunes
Language : Russian
Service kind : Complete Main
Default : Yes
Forced : No
Menu
00:00:00.000 : :Chapter 01
00:09:35.583 : :Chapter 02
00:14:53.042 : :Chapter 03
00:23:39.917 : :Chapter 04
00:28:10.125 : :Chapter 05
00:36:24.833 : :Chapter 06
00:47:31.708 : :Chapter 07
00:53:41.792 : :Chapter 08
00:59:28.542 : :Chapter 09
01:04:56.083 : :Chapter 10
01:12:56.792 : :Chapter 11
01:23:35.542 : :Chapter 12
Релиз от: & &
piratbit.org



Скачать Господин Дьявол через торрент https://c.radikal.ru/c42/2010/1f/bb0420271c0c.jpg Скачать фильм Господин Дьявол через торрент бесплантно в хорошем качестве Описание: Молодой полицейский Фурио Моменте отправляется в регион Венето, чтобы расследовать загадочное и шокирующее преступления: ... 10 10 2
Торрент: Зарегистрирован [2020-10-17 06:43] · скачан: 52 раз
Статус: √ проверено
Размер: 1.43 GB
Как cкачать? Как скачать Господин Дьявол через торрент | qTorrent

28-11-2019 20:33  

Отключить всю рекламу на сайте

    Дорогой пользователь! Огромная просьба, поблагодарите релизера, оцените раздачу и оставьте свои комментарий, если Вы скачали Господин Дьявол через торрент бесплатно! Внесите свою лепту в развитие PiratBit!
    Комментировать посты могут только пользователи прошедшие не сложную регистрацию
    Показать сообщения:    

    Господин Дьявол через торрент
    Скачать бесплатно Господин Дьявол
    Господин Дьявол скачать торрент
    Господин Дьявол смотреть онлайн
    Cкачать фильм Господин Дьявол бесплатно
    Господин Дьявол скачать торрент в хорошем качестве
    Господин Дьявол смотреть онлайн бесплатно в хорошем качестве


    Вы не можете начинать темы
    Вы не можете отвечать на сообщения
    Вы не можете редактировать свои сообщения
    Вы не можете удалять свои сообщения
    Вы не можете голосовать в опросах
    Вы не можете прикреплять файлы к сообщениям
    Вы можете скачивать файлы