Ссылка на приватное зеркало нашего сайта всего за 1$. Внимание количество ограничено!!!

2 сезон

iTunes

1 сезон

1

iTunes

iTunes

iTunes

1 сезон

RePack

30

ИГРА 18+

pack

ВАЖНО

!!Акция!!

Alien_RageХит недели

RePack

MK11
pack

Забери бонус

RePack

jed

!!Акция!!

Alien_Rage

RePack

fifa19

RePack

Assassins Creed: Odyssey

RePack

NEED FOR SPEED™ PAYBACK

4 сезон

9 сезон

Бесстыжие 9 сезон

Все сериалы

все сериалы на PB.wtf

RePack

FAR CRY 5
  

Водитель / Поединок / The Driver (Уолтер Хилл) [1978, боевик, триллер, драма, криминал, BDRip 720p] [MVO] (Нева-1) + 2х [AVO] (Г.Либергал, А.Михалев) piratbit.org

Водитель через торрент piratbit.org

Раздают: 2 [ 0 KB/s ]
Размер: 7.39 GB | Добавлен: 9 д. назад | Торрент скачан:31 раз
Скачать  

17-10-2020 09:03 Водитель Скачать торрент  

Водитель / Поединок / The Driver Год выпуска: 1978
Страна: США, Великобритания
Студия: 20th Century Fox Film Corporation, EMI Films Ltd.
Жанр: боевик, триллер, драма, криминал
Продолжительность: 01:29:21

Перевод 1: Профессиональный (многоголосый закадровый) [Нева-1 - VHS, 1995]
Перевод 2: Авторский (одноголосый закадровый) [Г.Либергал]
Перевод 3: Авторский (одноголосый закадровый) [А.Михалев]
Субтитры: русские, английские, английские SDH

Режиссер: Уолтер Хилл / Walter Hill

В ролях: Райан О’Нил, Брюс Дерн, Изабель Аджани, Рони Блейкли, Мэтт Кларк, Феличе Орланди, Джозеф Уолш, Руди Рамос, Денни Мако, Фрэнк Бруно, Ник Дмитрий

Описание: У Водителя нет имени. Он работает на того, кто больше платит. Талант Водителя — уходить от любой погони после преступления. Ещё никому не удалось его поймать. После очередной удачной операции Водителя один Детектив решает поставить на карту свою репутацию, но найти преступника. Он договаривается с несколькими уголовниками, чтобы те заманили его в ловушку. Водитель и его компаньонка, девушка промышляющая азартными играми, должны сделать всё, чтобы пустить Детектива по ложному следу.


rating


Тип релиза: BDRip 720p (Исходник: BD-Remux MPEG-4 AVC / 1080p / ~38,0 Mbps / 23,976 fps / 16:9 / High Profile 4.1)
Контейнер: MKV

Видео: MPEG-4 AVC Video, 1280x688 / 1,85:1 (16:9) / 10500 kbps / 23,976 fps / High@L4.1 / 2pass
Аудио 1: Russian: AC3, 2.0 ch, 192 kbps, 48 kHz | многоголосый ([url=viewtopic.php?t=2654048]DVD5 PAL - spartac[/url])
Аудио 2: Russian: AC3, 2.0 ch, 192 kbps, 48 kHz | одноголосый (Либергал)
Аудио 3: Russian: AC3, 2.0 ch, 192 kbps, 48 kHz | одноголосый (Михалев)
Аудио 4: English: DTS, 1.0 ch, 24-bit, 755 kbps, 48 kHz
Формат субтитров: softsub (SRT)
Главы:

x264 [info]: frame I:785 Avg QP:17.07 size:175623
x264 [info]: frame P:25061 Avg QP:19.55 size: 83644
x264 [info]: frame B:102697 Avg QP:21.74 size: 46752
x264 [info]: consecutive B-frames: 1.4% 1.9% 7.1% 7.9% 11.1% 57.4% 5.8% 1.3% 1.9% 2.2% 1.9%
Общее
Уникальный идентификатор : 176530661736929248468668411706212414108 (0x84CE9199DF7875CC94918200F750F29C)
Полное имя : M:\Водитель 1978.BDRip.720p.ПМ.2хАО.Eng.mkv
Формат : Matroska
Версия формата : Version 4 / Version 2
Размер файла : 7,39 Гбайт
Продолжительность : 1 ч. 29 м.
Общий поток : 11,8 Мбит/сек
Название фильма : The Driver (1978)
Дата кодирования : UTC 2013-12-04 10:04:24
Программа кодирования : mkvmerge v6.5.0 ('Isn't she lovely') built on Oct 20 2013 12:50:05
Библиотека кодирования : libebml v1.3.0 + libmatroska v1.4.1

Видео
Идентификатор : 1
Формат : AVC
Формат/Информация : Advanced Video Codec
Профиль формата : High@L4.1
Параметр CABAC формата : Да
Параметр ReFrames формата : 9 кадров
Идентификатор кодека : V_MPEG4/ISO/AVC
Продолжительность : 1 ч. 29 м.
Битрейт : 10,5 Мбит/сек
Ширина : 1280 пикселей
Высота : 688 пикселей
Соотношение сторон : 1,85:1
Режим частоты кадров : Постоянный
Частота кадров : 23,976 кадра/сек
Цветовое пространство : YUV
Субдискретизация насыщенности : 4:2:0
Битовая глубина : 8 бит
Тип развёртки : Прогрессивная
Бит/(Пиксели*Кадры) : 0.497
Размер потока : 6,41 Гбайт (87%)
Библиотека кодирования : x264 core 133 r2334 a3ac64b
Настройки программы : cabac=1 / ref=9 / deblock=1:-2:-2 / analyse=0x3:0x133 / me=umh / subme=10 / psy=1 / psy_rd=1.00:0.00 / mixed_ref=1 / me_range=32 / chroma_me=1 / trellis=2 / 8x8dct=1 / cqm=0 / deadzone=21,11 / fast_pskip=0 / chroma_qp_offset=-2 / threads=6 / lookahead_threads=1 / sliced_threads=0 / nr=0 / decimate=0 / interlaced=0 / bluray_compat=0 / constrained_intra=0 / bframes=10 / b_pyramid=2 / b_adapt=2 / b_bias=0 / direct=3 / weightb=1 / open_gop=0 / weightp=2 / keyint=240 / keyint_min=23 / scenecut=40 / intra_refresh=0 / rc_lookahead=60 / rc=2pass / mbtree=0 / bitrate=10500 / ratetol=1.0 / qcomp=0.70 / qpmin=0 / qpmax=64 / qpstep=4 / cplxblur=20.0 / qblur=0.5 / vbv_maxrate=50000 / vbv_bufsize=62500 / nal_hrd=none / ip_ratio=1.40 / pb_ratio=1.30 / aq=1:0.70
Язык : English
Default : Да
Forced : Нет

Аудио #1
Идентификатор : 2
Формат : AC-3
Формат/Информация : Audio Coding 3
Расширение режима : CM (complete main)
Параметр Endianness формата : Big
Идентификатор кодека : A_AC3
Продолжительность : 1 ч. 29 м.
Вид битрейта : Постоянный
Битрейт : 192 Кбит/сек
Каналы : 2 канала
Расположение каналов : Front: L R
Частота : 48,0 КГц
Битовая глубина : 16 бит
Метод сжатия : С потерями
Размер потока : 123 Мбайт (2%)
Заголовок : AC3 2.0ch 192kbps - многоголосый (Нева-1 - VHS, 1995)
Язык : Russian
Default : Да
Forced : Нет

Аудио #2
Идентификатор : 3
Формат : AC-3
Формат/Информация : Audio Coding 3
Расширение режима : CM (complete main)
Параметр Endianness формата : Big
Идентификатор кодека : A_AC3
Продолжительность : 1 ч. 29 м.
Вид битрейта : Постоянный
Битрейт : 192 Кбит/сек
Каналы : 2 канала
Расположение каналов : Front: L R
Частота : 48,0 КГц
Битовая глубина : 16 бит
Метод сжатия : С потерями
Размер потока : 123 Мбайт (2%)
Заголовок : AC3 2.0ch 192kbps - одноголосый (Либергал)
Язык : Russian
Default : Нет
Forced : Нет

Аудио #3
Идентификатор : 4
Формат : AC-3
Формат/Информация : Audio Coding 3
Расширение режима : CM (complete main)
Параметр Endianness формата : Big
Идентификатор кодека : A_AC3
Продолжительность : 1 ч. 29 м.
Вид битрейта : Постоянный
Битрейт : 192 Кбит/сек
Каналы : 2 канала
Расположение каналов : Front: L R
Частота : 48,0 КГц
Битовая глубина : 16 бит
Метод сжатия : С потерями
Размер потока : 123 Мбайт (2%)
Заголовок : AC3 2.0ch 192kbps - одноголосый (Михалев)
Язык : Russian
Default : Нет
Forced : Нет

Аудио #4
Идентификатор : 5
Формат : DTS
Формат/Информация : Digital Theater Systems
Режим : 16
Параметр Endianness формата : Big
Идентификатор кодека : A_DTS
Продолжительность : 1 ч. 29 м.
Вид битрейта : Постоянный
Битрейт : 768 Кбит/сек
Каналы : 1 канал
Расположение каналов : Front: C
Частота : 48,0 КГц
Битовая глубина : 24 бит
Метод сжатия : С потерями
Размер потока : 491 Мбайт (6%)
Заголовок : DTS 1.0ch 24-bit 755kbps - original
Язык : English
Default : Нет
Forced : Нет

Текст #1
Идентификатор : 6
Формат : UTF-8
Идентификатор кодека : S_TEXT/UTF8
Идентификатор кодека/Информация : UTF-8 Plain Text
Язык : Russian
Default : Нет
Forced : Нет

Текст #2
Идентификатор : 7
Формат : UTF-8
Идентификатор кодека : S_TEXT/UTF8
Идентификатор кодека/Информация : UTF-8 Plain Text
Язык : English
Default : Нет
Forced : Нет

Текст #3
Идентификатор : 8
Формат : UTF-8
Идентификатор кодека : S_TEXT/UTF8
Идентификатор кодека/Информация : UTF-8 Plain Text
Заголовок : SDH
Язык : English
Default : Нет
Forced : Нет

Меню
00:00:00.000 : en:00:00:00.000
00:06:44.654 : en:00:06:44.654
00:17:07.318 : en:00:17:07.318
00:26:59.535 : en:00:26:59.535
00:33:07.986 : en:00:33:07.986
00:39:08.388 : en:00:39:08.388
00:46:43.718 : en:00:46:43.718
00:54:16.086 : en:00:54:16.086
01:04:41.878 : en:01:04:41.878
01:11:07.680 : en:01:11:07.680
01:17:56.755 : en:01:17:56.755
01:27:30.745 : en:01:27:30.745



скриншот   скриншот   скриншот  



В российском прокате этот фильм выходил на видеокассетах (VHS) с переводом от кинокомпании Нева-1 (Санкт-Петербург, 1995 год) под названием — «Поединок».

В фильме не упоминаются имена ни одного из персонажей.

Райан О`Нил произносит в течение фильма всего 350 слов.

Фильм лежит в основе серии игр Driver, в частности первая часть Driver 1999 года разработана по его мотивам.
piratbit.org



Скачать Водитель через торрент http://i60.fastpic.ru/big/2013/1204/9d/cd7d70dd7e014f78fd061916a227419d.jpg Скачать фильм Водитель через торрент бесплантно в хорошем качестве Описание: У Водителя нет имени. Он работает на того, кто больше платит. Талант Водителя — уходить от любой погони после преступления. Ещё ... 8.3 10 4
Торрент: Зарегистрирован [2020-10-17 09:03] · скачан: 31 раз
Статус: √ проверено
Размер: 7.39 GB
Как cкачать? Как скачать Водитель через торрент | qTorrent

28-11-2019 20:33  

Отключить всю рекламу на сайте

    Дорогой пользователь! Огромная просьба, поблагодарите релизера, оцените раздачу и оставьте свои комментарий, если Вы скачали Водитель через торрент бесплатно! Внесите свою лепту в развитие PiratBit!
    Комментировать посты могут только пользователи прошедшие не сложную регистрацию
    Показать сообщения:    

    Водитель через торрент
    Скачать бесплатно Водитель
    Водитель скачать торрент
    Водитель смотреть онлайн
    Cкачать фильм Водитель бесплатно
    Водитель скачать торрент в хорошем качестве
    Водитель смотреть онлайн бесплатно в хорошем качестве


    Вы не можете начинать темы
    Вы не можете отвечать на сообщения
    Вы не можете редактировать свои сообщения
    Вы не можете удалять свои сообщения
    Вы не можете голосовать в опросах
    Вы не можете прикреплять файлы к сообщениям
    Вы можете скачивать файлы