Ссылка на приватное зеркало нашего сайта всего за 1$. Внимание количество ограничено!!!

2 сезон

iTunes

1 сезон

1

iTunes

iTunes

iTunes

1 сезон

RePack

30

ИГРА 18+

pack

ВАЖНО

!!Акция!!

Alien_RageХит недели

RePack

MK11
pack

Забери бонус

RePack

jed

!!Акция!!

Alien_Rage

RePack

fifa19

RePack

Assassins Creed: Odyssey

RePack

NEED FOR SPEED™ PAYBACK

4 сезон

9 сезон

Бесстыжие 9 сезон

Все сериалы

все сериалы на PB.wtf

RePack

FAR CRY 5
  

Кровь волка-одиночки / The Blood of Wolves / Koro no chi (Кадзуя Сираиси) [2018 г., Драма, криминал, детектив, HDRip-AVC] [MVO] [Синема Ус] от MediaBit piratbit.org

Кровь волка-одиночки через торрент piratbit.org

Размер: 1.45 GB | Добавлен: 9 д. назад | Торрент скачан:30 раз
Скачать  

17-10-2020 10:33 Кровь волка-одиночки Скачать торрент  


Кровь волка-одиночки / The Blood of Wolves / Koro no chi
Информация о фильме:
Название: Кровь волка-одиночки
Оригинальное название: The Blood of Wolves / Koro no chi
Год выхода: 2018
Жанр: Драма, криминал, детектив
Режиссер: Кадзуя Сираиси

В ролях: Кодзи Якусё, Тори Мацудзака, Ёко Маки, Кэнъити Такито, Такума Отоо, Дзюнко Абэ, Ёсукэ Эгути, Горо Ибуки, Хадзимэ Иноэ, Рэндзи Исибаси

Описание: Хиросима, 1988 год, до принятия закона о борьбе с организованной преступностью. Если верить слухам, детектив Сёго Огами как-то связан с якудза. Вместе с другим детективом, Сюити Хиокой, он расследует дело о пропавшем без вести сотруднике финансовой компании. Это расследование обостряет и без того серьёзный конфликт между двумя враждующими группировками якудза.



Страна: Япония
Студия: Toei Tokyo Movie Studios
Продолжительность: 02:06:08
Перевод: Любительский (многоголосый, закадровый) - Синема Ус



Информация о файле:
Кодек: AVC
Формат: MKV
Качество: HDRip-AVC
Видео: MPEG-4 AVC, 1024x428 (2.40:1), 23.976 fps, 1455 kbps, 0.138
Аудио RU: AC3, 2 ch, 48 kHz, 192 kbps
Субтитры: Английские
Навигация по главам: Есть

x264 info: frame I:1165 Avg QP:16.70 size: 57061
x264 info: frame P:44821 Avg QP:20.23 size: 15534
x264 info: frame B:135477 Avg QP:22.19 size: 4523
x264 info: consecutive B-frames: 3.7% 5.0% 10.1% 22.8% 18.4% 32.8% 3.8% 1.6% 0.5% 0.6% 0.2% 0.2% 0.4%
===============================================
General
Unique ID : 181536949189486380977113755001577837230 (0x8892BEA1194F349B5FD719A0B49C92AE)
Complete name : D:uTorrentРипы_от_wolf1245_MediaBitКровь волка-одиночки - Koro no chi (2018) HDRip-AVC from wolf1245 & MediaBit.mkv
Format : Matroska
Format version : Version 4
File size : 1.45 GiB
Duration : 2 h 6 min
Overall bit rate : 1 648 kb/s
Movie name : Кровь волка-одиночки / Koro no chi (2018) HDRip-AVC from wolf1245 & MediaBit
Encoded date : UTC 2020-10-17 10:16:28
Writing application : mkvmerge v51.0.0 ('I Wish') 64-bit
Writing library : libebml v1.4.0 + libmatroska v1.6.2
Video
ID : 1
Format : AVC
Format/Info : Advanced Video Codec
Format profile : High@L4.1
Format settings : CABAC / 12 Ref Frames
Format settings, CABAC : Yes
Format settings, Reference frames : 12 frames
Codec ID : V_MPEG4/ISO/AVC
Duration : 2 h 6 min
Bit rate : 1 455 kb/s
Width : 1 024 pixels
Height : 428 pixels
Display aspect ratio : 2.40:1
Frame rate mode : Constant
Frame rate : 23.976 (24000/1001) FPS
Color space : YUV
Chroma subsampling : 4:2:0
Bit depth : 8 bits
Scan type : Progressive
Bits/(Pixel*Frame) : 0.138
Stream size : 1.28 GiB (88%)
Title : wolf1245 & MediaBit
Writing library : x264 core 157 r2958 57baac4
Encoding settings : cabac=1 / ref=12 / deblock=1:-3:-3 / analyse=0x3:0x133 / me=umh / subme=11 / psy=1 / psy_rd=1.02:0.06 / mixed_ref=1 / me_range=48 / chroma_me=1 / trellis=2 / 8x8dct=1 / cqm=0 / deadzone=21,11 / fast_pskip=0 / chroma_qp_offset=-3 / threads=10 / lookahead_threads=2 / sliced_threads=0 / nr=0 / decimate=0 / interlaced=0 / bluray_compat=0 / constrained_intra=0 / bframes=12 / b_pyramid=2 / b_adapt=2 / b_bias=0 / direct=3 / weightb=1 / open_gop=0 / weightp=2 / keyint=240 / keyint_min=24 / scenecut=40 / intra_refresh=0 / rc_lookahead=60 / rc=2pass / mbtree=0 / bitrate=1455 / ratetol=1.0 / qcomp=0.60 / qpmin=0 / qpmax=69 / qpstep=4 / cplxblur=20.0 / qblur=0.5 / vbv_maxrate=50000 / vbv_bufsize=62500 / nal_hrd=none / filler=0 / ip_ratio=1.40 / pb_ratio=1.30 / aq=1:0.80
Language : Japanese
Default : Yes
Forced : No
Audio
ID : 2
Format : AC-3
Format/Info : Audio Coding 3
Commercial name : Dolby Digital
Codec ID : A_AC3
Duration : 2 h 6 min
Bit rate mode : Constant
Bit rate : 192 kb/s
Channel(s) : 2 channels
Channel layout : L R
Sampling rate : 48.0 kHz
Frame rate : 31.250 FPS (1536 SPF)
Compression mode : Lossy
Stream size : 173 MiB (12%)
Title : MVO [Синема УС] MediaBit
Language : Russian
Service kind : Complete Main
Default : Yes
Forced : No
Text
ID : 3
Format : UTF-8
Codec ID : S_TEXT/UTF8
Codec ID/Info : UTF-8 Plain Text
Duration : 2 h 5 min
Bit rate : 43 b/s
Count of elements : 1571
Stream size : 40.4 KiB (0%)
Language : English
Default : No
Forced : No
Menu
00:00:00.000 : :00:00:00.000
00:04:38.361 : :00:04:38.361
00:08:41.688 : :00:08:41.688
00:16:10.136 : :00:16:10.136
00:19:42.723 : :00:19:42.723
00:24:46.026 : :00:24:46.026
00:29:21.343 : :00:29:21.343
00:33:25.086 : :00:33:25.086
00:39:04.259 : :00:39:04.259
00:45:52.166 : :00:45:52.166
00:53:54.440 : :00:53:54.440
01:02:00.133 : :01:02:00.133
01:08:39.490 : :01:08:39.490
01:13:51.886 : :01:13:51.886
01:19:33.018 : :01:19:33.018
01:29:05.799 : :01:29:05.799
01:37:37.477 : :01:37:37.477
01:42:09.540 : :01:42:09.540
01:50:54.815 : :01:50:54.815
02:00:06.074 : :02:00:06.074
Релиз от: & &
piratbit.org



Скачать Кровь волка-одиночки через торрент https://b.radikal.ru/b33/2010/ba/660b338805f4.jpg Скачать фильм Кровь волка-одиночки через торрент бесплантно в хорошем качестве Описание: Хиросима, 1988 год, до принятия закона о борьбе с организованной преступностью. Если верить слухам, детектив Сёго Огами как-то ... 9.5 10 2
Торрент: Зарегистрирован [2020-10-17 10:33] · скачан: 30 раз
Статус: √ проверено
Размер: 1.45 GB
Как cкачать? Как скачать Кровь волка-одиночки через торрент | qTorrent

28-11-2019 20:33  

Отключить всю рекламу на сайте

17-10-2020 12:22 Кровь волка-одиночки Скачать торрент  

Топик был перенесен из форума Фильмы 2019-2020 [DVDrip, WEB-DLRip, HDrip] (DUB, MVO) в форум Азиатские фильмы


bober100piratbit.org



    Дорогой пользователь! Огромная просьба, поблагодарите релизера, оцените раздачу и оставьте свои комментарий, если Вы скачали Кровь волка-одиночки через торрент бесплатно! Внесите свою лепту в развитие PiratBit!
    Комментировать посты могут только пользователи прошедшие не сложную регистрацию
    Показать сообщения:    

    Кровь волка-одиночки через торрент
    Скачать бесплатно Кровь волка-одиночки
    Кровь волка-одиночки скачать торрент
    Кровь волка-одиночки смотреть онлайн
    Cкачать фильм Кровь волка-одиночки бесплатно
    Кровь волка-одиночки скачать торрент в хорошем качестве
    Кровь волка-одиночки смотреть онлайн бесплатно в хорошем качестве


    Вы не можете начинать темы
    Вы не можете отвечать на сообщения
    Вы не можете редактировать свои сообщения
    Вы не можете удалять свои сообщения
    Вы не можете голосовать в опросах
    Вы не можете прикреплять файлы к сообщениям
    Вы можете скачивать файлы