Ссылка на приватное зеркало нашего сайта всего за 1$. Внимание количество ограничено!!!

2 сезон

iTunes

1 сезон

1

iTunes

iTunes

iTunes

1 сезон

RePack

30

ИГРА 18+

pack

ВАЖНО

!!Акция!!

Alien_RageХит недели

RePack

MK11
pack

Забери бонус

RePack

jed

!!Акция!!

Alien_Rage

RePack

fifa19

RePack

Assassins Creed: Odyssey

RePack

NEED FOR SPEED™ PAYBACK

4 сезон

9 сезон

Бесстыжие 9 сезон

Все сериалы

все сериалы на PB.wtf

RePack

FAR CRY 5
  

Хелстром / Helstrom / Сезон: 1 / Серии: 1-2 из 10 (Андерс Энгстрем) [2020, Ужасы, фантастика, фэнтези, боевик, драма, приключения, WEB-DL 1080p] MVO [HDRezka studio] piratbit.org

Хелстром через торрент piratbit.org

Раздают: 5 [ 1 KB/s ]
Размер: 2.27 GB | Добавлен: 2 д. 22 ч. назад | Торрент скачан:30 раз
Скачать  

17-10-2020 12:31 Хелстром Скачать торрент  

Хелстром | Helstrom
Год выпуска: 2020
Страна: США
Студии: ABC Signature Studios, Marvel Television
Жанр: Ужасы, фантастика, фэнтези, боевик, драма, приключения
Продолжительность: ~ 00:55:00 серия
Перевод: Профессиональный (многоголосый) | HDRezka Studio
Субтитры: Русские (Forced), английские (SDH)

Режиссер: Андерс Энгстрем

rating

В ролях: Том Остин,, Сидни Леммон, Тарун Керам, Кайл Уоррен, Лео Чианг, Ксавье де Салаберри, Фиона Дуриф, Йорки Хоакин, Арки Кандола, Дэвид Мюнье и др.

Описание: Дэймон и Ана Хелстром — дети загадочного и могущественного серийного убийцы. В попытке разобраться в собственном происхождении они путешествуют по миру и уничтожают худших представителей человечества.

Качество: WEB-DL 1080p
Формат: MKV

Видео: 1920x1080 (16:9), 23, 976 fps, AVC (х264), High@L4, ~2257 kbps avg, 0.045 bit/pixel
Аудио#1: 48 kHz, AC3, 3/2 (L, C, R, l, r) + LFE ch, ~448 kbps
Аудио#2: 48 kHz, E-AC3, 3/2 (L, C, R, l, r) + LFE ch, ~256 kbps
скриншот   скриншот   скриншот   скриншот   скриншот  

Общее
Уникальный идентификатор : 129745130167879845553899439217173370493 (0x619C00CD50E7293A98DBE72DF0D0967D)
Полное имя : Marvels.Helstrom.S01E01.1080p.HULU.WEB-DL.HDREZKA.STUDIO.mkv
Формат : Matroska
Версия формата : Version 4
Размер файла : 1, 16 Гбайт
Продолжительность : 55 м. 49 с.
Общий поток : 2 963 Кбит/сек
Дата кодирования : UTC 2020-10-17 09:25:40
Программа кодирования : mkvmerge v51.0.0 ('I Wish') 64-bit
Библиотека кодирования : libebml v1.4.0 + libmatroska v1.6.2

Видео
Идентификатор : 1
Формат : AVC
Формат/Информация : Advanced Video Codec
Профиль формата : High@L4
Настройки формата : CABAC / 4 Ref Frames
Параметр CABAC формата : Да
Параметр RefFrames формата : 4 кадра
Идентификатор кодека : V_MPEG4/ISO/AVC
Продолжительность : 55 м. 49 с.
Битрейт : 2 257 Кбит/сек
Ширина : 1 920 пикселей
Высота : 1 080 пикселей
Соотношение сторон : 16:9
Режим частоты кадров : Постоянный
Частота кадров : 23, 976 (24000/1001) кадра/сек
Цветовое пространство : YUV
Субдискретизация насыщенности : 4:2:0
Битовая глубина : 8 бит
Тип развёртки : Прогрессивная
Бит/(Пиксели*Кадры) : 0.045
Размер потока : 901 Мбайт (76%)
Default : Да
Forced : Нет

Аудио #1
Идентификатор : 2
Формат : AC-3
Формат/Информация : Audio Coding 3
Коммерческое название : Dolby Digital
Идентификатор кодека : A_AC3
Продолжительность : 55 м. 49 с.
Вид битрейта : Постоянный
Битрейт : 448 Кбит/сек
Каналы : 6 каналов
Channel layout : L R C LFE Ls Rs
Частота : 48, 0 КГц
Частота кадров : 31, 250 кадров/сек (1536 SPF)
Метод сжатия : С потерями
Размер потока : 179 Мбайт (15%)
Язык : Russian
Default : Да
Forced : Нет

Аудио #2
Идентификатор : 3
Формат : E-AC-3
Формат/Информация : Enhanced AC-3
Коммерческое название : Dolby Digital Plus
Идентификатор кодека : A_EAC3
Продолжительность : 55 м. 49 с.
Вид битрейта : Постоянный
Битрейт : 256 Кбит/сек
Каналы : 6 каналов
Channel layout : L R C LFE Ls Rs
Частота : 48, 0 КГц
Частота кадров : 31, 250 кадров/сек (1536 SPF)
Метод сжатия : С потерями
Размер потока : 102 Мбайт (9%)
Язык : English
Default : Нет
Forced : Нет

Текст #1
Идентификатор : 4
Формат : UTF-8
Идентификатор кодека : S_TEXT/UTF8
Идентификатор кодека/Информация : UTF-8 Plain Text
Продолжительность : 52 м. 54 с.
Битрейт : 4 бит/сек
Count of elements : 34
Размер потока : 1, 61 Кбайт (0%)
Заголовок : Forced
Язык : Russian
Default : Да
Forced : Нет

Текст #2
Идентификатор : 5
Формат : UTF-8
Идентификатор кодека : S_TEXT/UTF8
Идентификатор кодека/Информация : UTF-8 Plain Text
Продолжительность : 55 м. 36 с.
Битрейт : 61 бит/сек
Count of elements : 810
Размер потока : 24, 9 Кбайт (0%)
Заголовок : SDH
Язык : English
Default : Нет
Forced : Нет

Меню
00:17:30.000 : en:Chapter 01
00:27:42.005 : en:Chapter 02
00:37:07.008 : en:Chapter 03
00:50:02.007 : en:Chapter 04

Когда раздача ведётся путём добавления новых серий, при каждом добавлении создётся новый торрент. Чтобы начать докачку новой серии, пользователям необходимо сделать следующее:
(1) остановить скачивание,
(2) удалить старый торрент у себя из клиента (старые серии удалять не надо),
(3) скачать новый торрент и запустить его у себя в клиенте вместо старого, при этом указать клиенту путь в старую папку, куда и должно происходить скачивание новых серий.
Ваш клиент при этом должен произвести хеширование (проверку) старой папки (если не производит сам - помогите ему сделать это), и будет докачивать только те серии, которых у вас ещё нет. Старые серии при этом не удаляются, а продолжают раздаваться!
Eсли вы уже удалили старые серии, то предотвратить повторную закачку старых серий можно, отжав галочку в соответсвующих местах при запуске нового торрента. По возможности, желательно не удалять старые серии как можно дольше, чтобы релизёр не столько продолжал раздавать старые серии, а смог сконцентрироваться на новых.

piratbit.org



Скачать Хелстром через торрент https://i114.fastpic.ru/big/2020/1017/99/2e2f75714a1489c2cb45a13cbb3ba499.png Скачать фильм Хелстром через торрент бесплантно в хорошем качестве Описание: Дэймон и Ана Хелстром — дети загадочного и могущественного серийного убийцы. В попытке разобраться в собственном происхождении ... 10 10 2
Торрент: Зарегистрирован [2020-10-18 03:00] · скачан: 30 раз
Статус: √ проверено
Размер: 2.27 GB
Как cкачать? Как скачать Хелстром через торрент | qTorrent

% Раздел Тема Автор DL S | L
Зарубежные сериалы [ 1.76 GB ] Хелстром / Helstrom / Сезон: 1 / Серии 1-2 из 10 [2020 WEB-DLRip-AVC] MVO [HDRezka Studio] GEKADOL Скачать
3 | 0

28-11-2019 20:33  

Отключить всю рекламу на сайте

    Дорогой пользователь! Огромная просьба, поблагодарите релизера, оцените раздачу и оставьте свои комментарий, если Вы скачали Хелстром через торрент бесплатно! Внесите свою лепту в развитие PiratBit!
    Комментировать посты могут только пользователи прошедшие не сложную регистрацию
    Показать сообщения:    

    Хелстром через торрент
    Скачать бесплатно Хелстром
    Хелстром скачать торрент
    Хелстром смотреть онлайн
    Cкачать фильм Хелстром бесплатно
    Хелстром скачать торрент в хорошем качестве
    Хелстром смотреть онлайн бесплатно в хорошем качестве


    Вы не можете начинать темы
    Вы не можете отвечать на сообщения
    Вы не можете редактировать свои сообщения
    Вы не можете удалять свои сообщения
    Вы не можете голосовать в опросах
    Вы не можете прикреплять файлы к сообщениям
    Вы можете скачивать файлы