Ссылка на приватное зеркало нашего сайта всего за 1$. Внимание количество ограничено!!!

2 сезон

iTunes

1 сезон

1

iTunes

iTunes

iTunes

1 сезон

RePack

30

ИГРА 18+

pack

ВАЖНО

!!Акция!!

Alien_RageХит недели

RePack

MK11
pack

Забери бонус

RePack

jed

!!Акция!!

Alien_Rage

RePack

fifa19

RePack

Assassins Creed: Odyssey

RePack

NEED FOR SPEED™ PAYBACK

4 сезон

9 сезон

Бесстыжие 9 сезон

Все сериалы

все сериалы на PB.wtf

RePack

FAR CRY 5
  

Королева Мария / Королева Румынии - Мария / Queen Marie of Romania (Алексис Кэхилл, Бриджитт Дродхофф) [2019 г., драма, WEB-DLRip-AVC] [DUB] [iTunes] от MediaBit piratbit.org

Королева Мария через торрент piratbit.org

Раздают: 4 [ 22 KB/s ] Качают: 1 [ 0 KB/s ]
Размер: 1.45 GB | Добавлен: 2 д. назад | Торрент скачан:22 раза
Скачать  

17-10-2020 14:37 Королева Мария Скачать торрент  


Королева Мария / Королева Румынии - Мария / Queen Marie of Romania
Информация о фильме:
Название: Королева Мария / Королева Румынии - Мария
Оригинальное название: Queen Marie of Romania
Год выхода: 2019
Жанр: Драма
Режиссер: Алексис Кэхилл, Бриджитт Дродхофф

В ролях: Роксана Люпу, Даниэль Плиер, Ричард Элфин, Патрик Друри, Кэролайн Лонк, Роналд Ченери, Адриан Титьени, Анхель Дэмиэн, Юлия Вердес, Филипп Каруа

Описание: Мария — дитя двух из самых могущественных европейских семей. Она могла стать королевой Великобритании, но несмотря на то, что будущий король Георг V предлагает ей брак, под давлением своей матери, Мария выходит замуж за румынского кронпринца Фердинанда. Жизнь королевы проходит в бурях, скандалах и конфликтах. В 1916 году Румыния вступила в Первую мировую войну на стороне Антанты, рассчитывая в случае победы присоединить территории, населённые этническими румынами. Поначалу Румыния вела успешную кампанию и даже заняла Трансильванию, однако вскоре оказалась окружена войсками противника. Румынская армия потерпела несколько сокрушительных поражений, а вскоре австро-германские войска вторглись на территорию страны. Румыния была вынуждена заключить унизительный мирный договор. Несмотря на то, что король Фердинанд его не ратифицировал, именно из-за этого договора на Парижской мирной конференции отказываются признавать требования Румынии.



Страна: Румыния
Студия: Abis Studio
Продолжительность: 01:49:50
Перевод: Дублированный - iTunes



Информация о файле:
Кодек: AVC
Формат: MKV
Качество: WEB-DLRip-AVC
Видео: MPEG-4 AVC, 1024x430 (2.40:1), 24.000 fps, 1503 kbps, 0.142
Аудио RU: AC3, 6 ch, 48 kHz, 384 kbps
Навигация по главам: Есть

x264 info: frame I:1768 Avg QP:14.84 size: 62236
x264 info: frame P:40493 Avg QP:18.19 size: 16204
x264 info: frame B:115898 Avg QP:20.22 size: 4068
x264 info: consecutive B-frames: 2.3% 4.3% 4.7% 70.7% 4.6% 10.7% 0.9% 0.8% 0.1% 0.4% 0.0% 0.2% 0.3%
================================
General
Unique ID : 112275533707752488860749119296375429590 (0x54777B327A58CF6B58484A718FC919D6)
Complete name : D:uTorrentРипы_от_wolf1245_MediaBitQueen Marie of Romania2019) WEB-DLRip-AVC from wolf1245 & MediaBit.mkv
Format : Matroska
Format version : Version 4
File size : 1.45 GiB
Duration : 1 h 49 min
Overall bit rate : 1 888 kb/s
Movie name : Queen Marie of Romania2019) WEB-DLRip-AVC from wolf1245 & MediaBit
Encoded date : UTC 2020-10-17 14:18:25
Writing application : mkvmerge v51.0.0 ('I Wish') 64-bit
Writing library : libebml v1.4.0 + libmatroska v1.6.2
Video
ID : 1
Format : AVC
Format/Info : Advanced Video Codec
Format profile : High@L4.1
Format settings : CABAC / 12 Ref Frames
Format settings, CABAC : Yes
Format settings, Reference frames : 12 frames
Codec ID : V_MPEG4/ISO/AVC
Duration : 1 h 49 min
Bit rate : 1 503 kb/s
Width : 1 024 pixels
Height : 430 pixels
Display aspect ratio : 2.40:1
Frame rate mode : Constant
Frame rate : 24.000 FPS
Color space : YUV
Chroma subsampling : 4:2:0
Bit depth : 8 bits
Scan type : Progressive
Bits/(Pixel*Frame) : 0.142
Stream size : 1.15 GiB (80%)
Title : wolf1245 & MediaBit
Writing library : x264 core 157 r2958 57baac4
Encoding settings : cabac=1 / ref=12 / deblock=1:-3:-3 / analyse=0x3:0x133 / me=umh / subme=11 / psy=1 / psy_rd=1.02:0.06 / mixed_ref=1 / me_range=48 / chroma_me=1 / trellis=2 / 8x8dct=1 / cqm=0 / deadzone=21,11 / fast_pskip=0 / chroma_qp_offset=-3 / threads=10 / lookahead_threads=2 / sliced_threads=0 / nr=0 / decimate=0 / interlaced=0 / bluray_compat=0 / constrained_intra=0 / bframes=12 / b_pyramid=2 / b_adapt=2 / b_bias=0 / direct=3 / weightb=1 / open_gop=0 / weightp=2 / keyint=240 / keyint_min=24 / scenecut=40 / intra_refresh=0 / rc_lookahead=60 / rc=2pass / mbtree=0 / bitrate=1503 / ratetol=1.0 / qcomp=0.60 / qpmin=0 / qpmax=69 / qpstep=4 / cplxblur=20.0 / qblur=0.5 / vbv_maxrate=50000 / vbv_bufsize=62500 / nal_hrd=none / filler=0 / ip_ratio=1.40 / pb_ratio=1.30 / aq=2:0.80
Language : English
Default : Yes
Forced : No
Color range : Limited
Color primaries : BT.709
Transfer characteristics : BT.709
Matrix coefficients : BT.709
Audio
ID : 2
Format : AC-3
Format/Info : Audio Coding 3
Commercial name : Dolby Digital
Codec ID : A_AC3
Duration : 1 h 49 min
Bit rate mode : Constant
Bit rate : 384 kb/s
Channel(s) : 6 channels
Channel layout : L R C LFE Ls Rs
Sampling rate : 48.0 kHz
Frame rate : 31.250 FPS (1536 SPF)
Compression mode : Lossy
Stream size : 302 MiB (20%)
Title : DUB | iTunes
Language : Russian
Service kind : Complete Main
Default : Yes
Forced : No
Menu
00:00:00.000 : :Глава 1
00:04:31.458 : :Глава 2
00:12:08.916 : :Глава 3
00:18:44.499 : :Глава 4
00:25:49.915 : :Глава 5
00:33:21.581 : :Глава 6
00:42:13.289 : :Глава 7
00:48:28.247 : :Глава 8
00:57:03.580 : :Глава 9
01:02:15.871 : :Глава 10
01:08:00.204 : :Глава 11
01:16:09.329 : :Глава 12
01:23:49.412 : :Глава 13
01:29:53.662 : :Глава 14
01:36:15.870 : :Глава 15
01:43:08.411 : :Глава 16
Релиз от: & &
piratbit.org



Скачать Королева Мария через торрент https://d.radikal.ru/d33/2010/1c/3d595024bd72.jpg Скачать фильм Королева Мария через торрент бесплантно в хорошем качестве Описание: Мария — дитя двух из самых могущественных европейских семей. Она могла стать королевой Великобритании, но несмотря на то, что ... 10 10 2
Торрент: Зарегистрирован [2020-10-17 14:37] · скачан: 22 раз
Статус: √ проверено
Размер: 1.45 GB
Как cкачать? Как скачать Королева Мария через торрент | qTorrent

28-11-2019 20:33  

Отключить всю рекламу на сайте

    Дорогой пользователь! Огромная просьба, поблагодарите релизера, оцените раздачу и оставьте свои комментарий, если Вы скачали Королева Мария через торрент бесплатно! Внесите свою лепту в развитие PiratBit!
    Комментировать посты могут только пользователи прошедшие не сложную регистрацию
    Показать сообщения:    

    Королева Мария через торрент
    Скачать бесплатно Королева Мария
    Королева Мария скачать торрент
    Королева Мария смотреть онлайн
    Cкачать фильм Королева Мария бесплатно
    Королева Мария скачать торрент в хорошем качестве
    Королева Мария смотреть онлайн бесплатно в хорошем качестве


    Вы не можете начинать темы
    Вы не можете отвечать на сообщения
    Вы не можете редактировать свои сообщения
    Вы не можете удалять свои сообщения
    Вы не можете голосовать в опросах
    Вы не можете прикреплять файлы к сообщениям
    Вы можете скачивать файлы