Достать ножи: Стеклянная луковица

MVO

Добыча

Дубляж

Уэнсдэй

1 сезон

Тор

Дубляж

13 клиническая

1 сезон

Жестокая ночь

MVO

Одни из нас

1 сезон

Deluxe

pack

Рекомендуем

30

Пиратка

ВАЖНО

ВАЖНО

Ghostwire

Пиратка

jed

RePack

nioh2

RePack

RDR2

RePack

NEED FOR SPEED™ PAYBACK

RePack

скачать торрент

Кинопоиск HD

Острые козырьки 6 сезон

6 сезон

FAR CRY 6

RePack

скачать торрент

Лицензия

скачать торрент

MVO

1

1 сезон

скачать торрент

1 сезон

скачать торрент

Лицензия

  

Каджиллионер / Kajillionaire (Миранда Джулай) [2020, Драма, криминал, WEB-DL (HEVC)2160p] [Дубляж] [iTunes]

Каджиллионер через торрент piratbit.org

Размер: 11.31 GB | Добавлен: 1 год 10 мес. назад | Торрент скачан:64 раза
Смотреть онлайн | Скачать | Поддержите нас   

17-10-2020 17:07 Каджиллионер Скачать торрент  

Каджиллионер / Kajillionaire Год выхода: 2020
Жанр: Драма, криминал
Страна: США
Студия: Annapurna Pictures, Plan B Entertainment
Продолжительность: 01:44:49
Перевод: Дублированный [iTunes]

Режиссер: Миранда Джулай

В ролях: Эван Рэйчел Вуд, Дебра Уингер, Джина Родригес, Ричард Дженкинс, Адам Бартли, Диана-Мария Рива, Патриша Белчер, Да Вин Джой Рэндольф, Марк Иванир, Мадлен Когхлан

Описание: Главную героиню на протяжении последних 26 лет упорно тренируют обманывать, красть и мошенничать, причём её собственные родители. Сами они, понятное дело, промышляют тем же, и дочка становится без преувеличения главной звездой их странной волосатой банды. Но внезапно идеально отлаженный механизм даёт сбой, когда к семейству присоединяется горячая и дико милая незнакомка...

rating

Файл

Качество: WEB-DL (HEVC)2160p
Кодек: x.265
Видео: MPEG-4 AVC, 14.5 Мбит/с, 3840x2160
Звук:
Аудио #1: AC3, 48 Гц, 384 Кбит/сек, 6 ch | Дубляж |
Аудио #2: E-AC3, 48 Гц, 256 Кбит/сек, 6 ch | Английский
Субтитры: Английские

Общее
Уникальный идентификатор: 240011844539099997422933553613481987310 (0xB490998F266AC93F757F3EAD65584CEE)
Полное имя: C: \ Users \ Nick \ Downloads \ Kajillionaire_2020_WEB-DL. (2160p) .Gateberg_.mkv
Формат: Matroska
Версия формата: Версия 4
Размер файла: 11,3 Гбайт
Продолжительность: 1 ч. 44 м.
Общий поток: 15,4 Мбит / сек
Программа кодирования: Lavf58.29.100
Библиотека кодирования: Lavf58.29.100
ErrorDetectionType: На уровень 1

Видео
Идентификатор: 1
Формат: HEVC
Формат / Информация: Высокоэффективное кодирование видеоФормат профиля
: Main@L5.1 @Main
Идентификатор кодека: V_MPEGH / ISO / HEVC
Продолжительность: 1 ч. 44 м.
Битрейт: 14,5 Мбит / сек
Ширина: 3 840 пикселей
Высота: 2160 пикселей
Соотношение сторон: 16: 9
Режим частоты кадров: Постоянный
Частота кадров: 23,976 (24000/1001) кадра / сек
Цветовое пространство: YUV
Субдискретизация насыщенности: 4: 2: 0
Битовая глубина: 8 бит
Бит / (Пиксели * Кадры): 0.073
Размер потока: 10,6 Гбайт (94%)
По умолчанию: Да
Принудительно: Нет
Цветовой диапазон: Limited
Основные цвета: BT.709
Характеристики трансфера: BT.709
Матенты матрицы: BT.709

Аудио # 1
Идентификатор: 2
Формат: AC-3
Формат / Информация: Audio Coding 3
Коммерческое название: Dolby Digital
Идентификатор кодека: A_AC3
Продолжительность: 1 ч. 44 м.
Вид битрейта: Постоянный
Битрейт: 384 Кбит / сек
Каналы: 6 каналов
Расположение каналов: LRC LFE Ls Rs
Частота: 48,0 КГц
Частота кадров: 31 250 кадров / сек (1536 SPF)
Метод сжатия: С потерями
Задержка видео: 2 с. 0 мс.
Размер потока: 288 Мбайт (2%)
Язык: русский
Вид услуги: Полная основная
По умолчанию: Да
Принудительно: Нет

Аудио # 2
Идентификатор: 3
Формат: E-AC-3
Формат / Информация: Улучшенный AC-3
Коммерческое название: Dolby Digital Plus
Идентификатор кодека: A_EAC3
Продолжительность: 1 ч. 44 м.
Вид битрейта: Постоянный
Битрейт: 256 Кбит / сек
Каналы: 6 каналов
Расположение каналов: LRC LFE Ls Rs
Частота: 48,0 КГц
Частота кадров: 31 250 кадров / сек (1536 SPF)
Метод сжатия: С потерями
Размер потока: 192 Мбайт (2%)
Вид услуги: Полная основная
По умолчанию: Да
Принудительно: Нет
скриншот  скриншот  скриншот  



Скачать Каджиллионер через торрент https://a.radikal.ru/a08/2010/ce/c444daad44ea.jpg Скачать, смотреть онлайн Каджиллионер бесплантно в хорошем качестве Описание: Главную героиню на протяжении последних 26 лет упорно тренируют обманывать, красть и мошенничать, причём её собственные родители. ... 10 10 8
Торрент: Зарегистрирован [2021-03-26 06:55] · скачан: 64 раз
Статус: √ проверено
Размер: 11.31 GB
Как cкачать? Как скачать Каджиллионер через торрент | UTorrent

% Раздел Тема Автор DL S | L
Фильмы (WEB-DL 720p, 1080p) [ 5.53 GB ] Каджиллионер / Kajillionaire | iTunes | 1080p bober100 Скачать
1 | 0



Последний раз редактировалось: killermax2013 (2021-03-26 06:54), всего редактировалось 1 раз

28-11-2019 20:33  


Отключить вcю реклaмy на сайте, в т.ч. и в плеере онлайн просмотра!

26-03-2021 07:00 Каджиллионер Скачать торрент  




    Дорогой пользователь! Огромная просьба, поблагодарите релизера, оцените раздачу и оставьте свои комментарий, если Вы скачали Каджиллионер через торрент бесплатно!!
    Комментировать посты могут только пользователи прошедшие не сложную регистрацию
    Показать сообщения:    


    Каджиллионер через торрент
    Скачать бесплатно Каджиллионер
    Каджиллионер скачать торрент
    Каджиллионер смотреть онлайн
    Cкачать фильм Каджиллионер бесплатно
    Каджиллионер скачать торрент в хорошем качестве
    Каджиллионер смотреть онлайн бесплатно в хорошем качестве
    Вы не можете начинать темы
    Вы не можете отвечать на сообщения
    Вы не можете редактировать свои сообщения
    Вы не можете удалять свои сообщения
    Вы не можете голосовать в опросах
    Вы не можете прикреплять файлы к сообщениям
    Вы можете скачивать файлы
    Каджиллионер / Kajillionaire [2020, Драма, криминал, WEB-DL 2160p] [Дубляж] [iTunes] смотреть онлайн, скачать торрент picoco.icu