Ссылка на приватное зеркало нашего сайта всего за 1$. Внимание количество ограничено!!!

2 сезон

iTunes

1 сезон

1

iTunes

iTunes

iTunes

1 сезон

RePack

30

ИГРА 18+

pack

ВАЖНО

!!Акция!!

Alien_RageХит недели

RePack

MK11
pack

Забери бонус

RePack

jed

!!Акция!!

Alien_Rage

RePack

fifa19

RePack

Assassins Creed: Odyssey

RePack

NEED FOR SPEED™ PAYBACK

4 сезон

9 сезон

Бесстыжие 9 сезон

Все сериалы

все сериалы на PB.wtf

RePack

FAR CRY 5
  

Бойтесь ходячих мертвецов / Fear the Walking Dead / Сезон: 6 / Серии: 1- из 16 (Адам Дэвидсон, Кари Скогланд, Стефан Шварц) [2020, Ужасы, фантастика, триллер, драма, WEB-DL 1080p] MVO [LostFilm] piratbit.org

Бойтесь ходячих мертвецов через торрент piratbit.org

Раздают: 1 [ 0 KB/s ]
Размер: 3.62 GB | Добавлен: 3 д. назад | Торрент скачан:18 раз
Скачать  

17-10-2020 18:53 Бойтесь ходячих мертвецов Скачать торрент  

Бойтесь ходячих мертвецов | Fear the Walking Dead
Год выпуска: 2020
Страна: США
Студия: AMC Studios
Жанр: Ужасы, фантастика, триллер, драма
Продолжительность: ~ 00:45:00
Перевод: Профессиональный (многоголосый закадровый) | студия LostFilm
Субтитры: английские

Режиссёр: Адам Дэвидсон, Кари Скогланд, Стефан Шварц

rating

В ролях: Клифф Кёртис, Ким Диккенс, Алисия Дебнем Кери, Фрэнк Диллэйн, Рубен Блэйдс, Мерседес Масон, Колман Доминго, Лоренцо Джеймс Хенри, Элизабет Родригес, Тони Френч и др.

Описание: Действия сериала происходят параллельно с событиями зомби-апокалипсиса, показанными в сериале «Ходячие мертвецы», но в совершенно другом месте — Лос-Анджелесе. В центре сюжета находится семья матери-одиночки и консультанта по профессиям Мэдисон Кларк и разведённого учителя Трэвиса Манавы, которые вместе пытаются выжить в зомби-апокалипсисе.

Качество: WEB-DL 1080p
Формат: | X264 | MKV |

Видео: ~ 9200 kbps, 1920x1080, 23.976 fps
Аудио Rus: AC3, 48,0 kHz, 2 ch, 384 Кбит/сек | LostFilm
Аудио Eng: AC3, 48 kHz, 3/2 (L,C,R,l,r) + LFE ch, 384 Кбит/сек
Общее
Уникальный идентификатор : 211359472184471626327844556869809224109 (0x9F025A88DF23DAAE9A55676AC49439AD)
Полное имя : C:\FTWD (Season 06) LostFilm 1080\Fear.the.Walking.Dead.S06E01.1080p.WEB-DL.LostFilm.mkv
Формат : Matroska
Версия формата : Version 2
Размер файла : 3,62 Гбайт
Продолжительность : 51 м. 24 с.
Общий поток : 10,1 Мбит/сек
Дата кодирования : UTC 2020-10-17 18:21:07
Программа кодирования : mkvmerge v7.8.0 ('River Man') 32bit built on Apr 3 2015 12:11:22
Библиотека кодирования : libebml v1.3.1 + libmatroska v1.4.2

Видео
Идентификатор : 1
Формат : AVC
Формат/Информация : Advanced Video Codec
Профиль формата : High@L4
Настройки формата : CABAC / 4 Ref Frames
Параметр CABAC формата : Да
Параметр RefFrames формата : 4 кадра
Идентификатор кодека : V_MPEG4/ISO/AVC
Продолжительность : 51 м. 24 с.
Вид битрейта : Постоянный
Битрейт : 9125 Кбит/сек
Номинальный битрейт : 10000 Кбит/сек
Ширина : 1920 пикселей
Высота : 1080 пикселей
Соотношение сторон : 16:9
Режим частоты кадров : Постоянный
Частота кадров : 23,976 (24000/1001) кадра/сек
Цветовое пространство : YUV
Субдискретизация насыщенности : 4:2:0
Битовая глубина : 8 бит
Тип развёртки : Прогрессивная
Бит/(Пиксели*Кадры) : 0.184
Размер потока : 3,28 Гбайт (90%)
Язык : English
Default : Да
Forced : Нет
Цветовой диапазон : Limited
Основные цвета : BT.709
Характеристики трансфера : BT.709
Коэффициенты матрицы : BT.709

Аудио #1
Идентификатор : 2
Формат : AC-3
Формат/Информация : Audio Coding 3
Коммерческое название : Dolby Digital
Идентификатор кодека : A_AC3
Продолжительность : 51 м. 24 с.
Вид битрейта : Постоянный
Битрейт : 384 Кбит/сек
Каналы : 2 канала
ChannelLayout : L R
Частота : 48,0 КГц
Частота кадров : 31,250 кадров/сек (1536 SPF)
Битовая глубина : 16 бит
Метод сжатия : С потерями
Размер потока : 141 Мбайт (4%)
Язык : Russian
ServiceKind/String : Complete Main
Default : Да
Forced : Нет

Аудио #2
Идентификатор : 3
Формат : AC-3
Формат/Информация : Audio Coding 3
Коммерческое название : Dolby Digital
Идентификатор кодека : A_AC3
Продолжительность : 51 м. 24 с.
Вид битрейта : Постоянный
Битрейт : 384 Кбит/сек
Каналы : 6 каналов
ChannelLayout : L R C LFE Ls Rs
Частота : 48,0 КГц
Частота кадров : 31,250 кадров/сек (1536 SPF)
Битовая глубина : 16 бит
Метод сжатия : С потерями
Размер потока : 141 Мбайт (4%)
Язык : English
ServiceKind/String : Complete Main
Default : Нет
Forced : Нет

Текст
Идентификатор : 4
Формат : UTF-8
Идентификатор кодека : S_TEXT/UTF8
Идентификатор кодека/Информация : UTF-8 Plain Text
Язык : English
Default : Нет
Forced : Нет
скриншот  скриншот  скриншот  
Когда раздача ведётся путём добавления новых серий, при каждом добавлении создётся новый торрент. Чтобы начать докачку новой серии, пользователям необходимо сделать следующее:
(1) остановить скачивание,
(2) удалить старый торрент у себя из клиента (старые серии удалять не надо),
(3) скачать новый торрент и запустить его у себя в клиенте вместо старого, при этом указать клиенту путь в старую папку, куда и должно происходить скачивание новых серий.
Ваш клиент при этом должен произвести хеширование (проверку) старой папки (если не производит сам - помогите ему сделать это), и будет докачивать только те серии, которых у вас ещё нет. Старые серии при этом не удаляются, а продолжают раздаваться!
Eсли вы уже удалили старые серии, то предотвратить повторную закачку старых серий можно, отжав галочку в соответсвующих местах при запуске нового торрента. По возможности, желательно не удалять старые серии как можно дольше, чтобы релизёр не столько продолжал раздавать старые серии, а смог сконцентрироваться на новых.

piratbit.org



Скачать Бойтесь ходячих мертвецов через торрент https://img11.lostpic.net/2020/10/17/eef58da1f09c76db75fb5efabd16f5a7.jpg Скачать фильм Бойтесь ходячих мертвецов через торрент бесплантно в хорошем качестве Описание: Действия сериала происходят параллельно с событиями зомби-апокалипсиса, показанными в сериале «Ходячие мертвецы», но в совершенно ... 10 10 2
Торрент: Зарегистрирован [2020-10-17 18:53] · скачан: 18 раз
Статус: √ проверено
Размер: 3.62 GB
Как cкачать? Как скачать Бойтесь ходячих мертвецов через торрент | qTorrent

% Раздел Тема Автор DL S | L
Зарубежные сериалы [ 601 MB ] Бойтесь ходячих мертвецов / Fear the Walking Dead / Сезон: 6 / Серии: 1- из 16 [2020 WEB-DLRip] MVO [LostFilm] bober100 Скачать
2 | 0

28-11-2019 20:33  

Отключить всю рекламу на сайте

    Дорогой пользователь! Огромная просьба, поблагодарите релизера, оцените раздачу и оставьте свои комментарий, если Вы скачали Бойтесь ходячих мертвецов через торрент бесплатно! Внесите свою лепту в развитие PiratBit!
    Комментировать посты могут только пользователи прошедшие не сложную регистрацию
    Показать сообщения:    

    Бойтесь ходячих мертвецов через торрент
    Скачать бесплатно Бойтесь ходячих мертвецов
    Бойтесь ходячих мертвецов скачать торрент
    Бойтесь ходячих мертвецов смотреть онлайн
    Cкачать фильм Бойтесь ходячих мертвецов бесплатно
    Бойтесь ходячих мертвецов скачать торрент в хорошем качестве
    Бойтесь ходячих мертвецов смотреть онлайн бесплатно в хорошем качестве


    Вы не можете начинать темы
    Вы не можете отвечать на сообщения
    Вы не можете редактировать свои сообщения
    Вы не можете удалять свои сообщения
    Вы не можете голосовать в опросах
    Вы не можете прикреплять файлы к сообщениям
    Вы можете скачивать файлы