Ссылка на приватное зеркало нашего сайта всего за 1$. Внимание количество ограничено!!!

2 сезон

iTunes

1 сезон

1

iTunes

iTunes

iTunes

1 сезон

RePack

30

ИГРА 18+

pack

ВАЖНО

!!Акция!!

Alien_RageХит недели

RePack

MK11
pack

Забери бонус

RePack

jed

!!Акция!!

Alien_Rage

RePack

fifa19

RePack

Assassins Creed: Odyssey

RePack

NEED FOR SPEED™ PAYBACK

4 сезон

9 сезон

Бесстыжие 9 сезон

Все сериалы

все сериалы на PB.wtf

RePack

FAR CRY 5
  

Бойтесь ходячих мертвецов / Fear the Walking Dead / Сезон: 6 / Серии: 1- из 16 (Адам Дэвидсон, Кари Скогланд, Стефан Шварц) [2020, Ужасы, фантастика, триллер, драма, WEB-DLRip] MVO [LostFilm] piratbit.org

Бойтесь ходячих мертвецов через торрент piratbit.org

Раздают: 1 [ 0 KB/s ]
Размер: 601 MB | Добавлен: 3 д. назад | Торрент скачан:20 раз
Скачать  

17-10-2020 19:05 Бойтесь ходячих мертвецов Скачать торрент  

Бойтесь ходячих мертвецов | Fear the Walking Dead
Год выпуска: 2020
Страна: США
Студия: AMC Studios
Жанр: Ужасы, фантастика, триллер, драма
Продолжительность: ~ 00:45:00
Перевод: Профессиональный (многоголосый закадровый) | студия LostFilm
Субтитры: отсутствуют

Режиссёр: Адам Дэвидсон, Кари Скогланд, Стефан Шварц

rating

В ролях: Клифф Кёртис, Ким Диккенс, Алисия Дебнем Кери, Фрэнк Диллэйн, Рубен Блэйдс, Мерседес Масон, Колман Доминго, Лоренцо Джеймс Хенри, Элизабет Родригес, Тони Френч и др.

Описание: Действия сериала происходят параллельно с событиями зомби-апокалипсиса, показанными в сериале «Ходячие мертвецы», но в совершенно другом месте — Лос-Анджелесе. В центре сюжета находится семья матери-одиночки и консультанта по профессиям Мэдисон Кларк и разведённого учителя Трэвиса Манавы, которые вместе пытаются выжить в зомби-апокалипсисе.

Качество: WEB-DLRip
Формат: XviD | Avi

Видео: ~ 1400 kbps, 720x400, 23.976 fps
Аудио Rus: mp3, 48 KHz, 2 ch, 128 kbps | LostFilm
Аудио Eng: mp3, 48 KHz, 2 ch, 128 kbps
Общее
Полное имя : C:\FTWD (Season 06) LostFilm\Fear.the.Walking.Dead.S06E01.WEB-DLRip.Rus.Eng.LostFilm.avi
Формат : AVI
Формат/Информация : Audio Video Interleave
Размер файла : 601 Мбайт
Продолжительность : 51 м. 24 с.
Общий поток : 1634 Кбит/сек
Программа кодирования : VirtualDubMod 1.5.10.3 | www.virtualdub-fr.org || (build 2550/release)
Библиотека кодирования : VirtualDubMod build 2550/release

Видео
Идентификатор : 0
Формат : MPEG-4 Visual
Профиль формата : Advanced Simple@L5
Настройки формата : BVOP1 / Custom Matrix
Параметр BVOP формата : 1
Параметр QPel формата : Нет
Параметр GMC формата : Без точки перехода
Параметр матрицы формата : Выборочная
Идентификатор кодека : XVID
Идентификатор кодека/Подсказка : XviD
Продолжительность : 51 м. 24 с.
Битрейт : 1402 Кбит/сек
Ширина : 720 пикселей
Высота : 400 пикселей
Соотношение сторон : 16:9
Частота кадров : 23,976 (24000/1001) кадра/сек
Цветовое пространство : YUV
Субдискретизация насыщенности : 4:2:0
Битовая глубина : 8 бит
Тип развёртки : Прогрессивная
Метод сжатия : С потерями
Бит/(Пиксели*Кадры) : 0.189
Размер потока : 479 Мбайт (80%)
Библиотека кодирования : XviD 73

Аудио #1
Идентификатор : 1
Формат : MPEG Audio
Версия формата : Version 1
Профиль формата : Layer 3
Настройки формата : Joint stereo / MS Stereo
Идентификатор кодека : 55
Идентификатор кодека/Подсказка : MP3
Продолжительность : 51 м. 24 с.
Вид битрейта : Постоянный
Битрейт : 128 Кбит/сек
Каналы : 2 канала
Частота : 48,0 КГц
Метод сжатия : С потерями
Размер потока : 47,1 Мбайт (8%)
Выравнивание : Соединение по промежуткам

Аудио #2
Идентификатор : 2
Формат : MPEG Audio
Версия формата : Version 1
Профиль формата : Layer 3
Настройки формата : Joint stereo / MS Stereo
Идентификатор кодека : 55
Идентификатор кодека/Подсказка : MP3
Продолжительность : 51 м. 24 с.
Вид битрейта : Постоянный
Битрейт : 128 Кбит/сек
Каналы : 2 канала
Частота : 48,0 КГц
Метод сжатия : С потерями
Размер потока : 47,1 Мбайт (8%)
Выравнивание : Соединение по промежуткам
скриншот  скриншот  скриншот  
Когда раздача ведётся путём добавления новых серий, при каждом добавлении создётся новый торрент. Чтобы начать докачку новой серии, пользователям необходимо сделать следующее:
(1) остановить скачивание,
(2) удалить старый торрент у себя из клиента (старые серии удалять не надо),
(3) скачать новый торрент и запустить его у себя в клиенте вместо старого, при этом указать клиенту путь в старую папку, куда и должно происходить скачивание новых серий.
Ваш клиент при этом должен произвести хеширование (проверку) старой папки (если не производит сам - помогите ему сделать это), и будет докачивать только те серии, которых у вас ещё нет. Старые серии при этом не удаляются, а продолжают раздаваться!
Eсли вы уже удалили старые серии, то предотвратить повторную закачку старых серий можно, отжав галочку в соответсвующих местах при запуске нового торрента. По возможности, желательно не удалять старые серии как можно дольше, чтобы релизёр не столько продолжал раздавать старые серии, а смог сконцентрироваться на новых.

piratbit.org



Скачать Бойтесь ходячих мертвецов через торрент https://img11.lostpic.net/2020/10/17/eef58da1f09c76db75fb5efabd16f5a7.jpg Скачать фильм Бойтесь ходячих мертвецов через торрент бесплантно в хорошем качестве Описание: Действия сериала происходят параллельно с событиями зомби-апокалипсиса, показанными в сериале «Ходячие мертвецы», но в совершенно ... 8 10 4
Торрент: Зарегистрирован [2020-10-17 19:05] · скачан: 20 раз
Статус: √ проверено
Размер: 601 MB
Как cкачать? Как скачать Бойтесь ходячих мертвецов через торрент | qTorrent

% Раздел Тема Автор DL S | L
Зарубежные сериалы [ 3.62 GB ] Бойтесь ходячих мертвецов / Fear the Walking Dead / Сезон: 6 / Серии: 1- из 16 [2020 WEB-DL 1080p] MVO [LostFilm] bober100 Скачать
3 | 0

28-11-2019 20:33  

Отключить всю рекламу на сайте

    Дорогой пользователь! Огромная просьба, поблагодарите релизера, оцените раздачу и оставьте свои комментарий, если Вы скачали Бойтесь ходячих мертвецов через торрент бесплатно! Внесите свою лепту в развитие PiratBit!
    Комментировать посты могут только пользователи прошедшие не сложную регистрацию
    Показать сообщения:    

    Бойтесь ходячих мертвецов через торрент
    Скачать бесплатно Бойтесь ходячих мертвецов
    Бойтесь ходячих мертвецов скачать торрент
    Бойтесь ходячих мертвецов смотреть онлайн
    Cкачать фильм Бойтесь ходячих мертвецов бесплатно
    Бойтесь ходячих мертвецов скачать торрент в хорошем качестве
    Бойтесь ходячих мертвецов смотреть онлайн бесплатно в хорошем качестве


    Вы не можете начинать темы
    Вы не можете отвечать на сообщения
    Вы не можете редактировать свои сообщения
    Вы не можете удалять свои сообщения
    Вы не можете голосовать в опросах
    Вы не можете прикреплять файлы к сообщениям
    Вы можете скачивать файлы