Ссылка на приватное зеркало нашего сайта всего за 1$. Внимание количество ограничено!!!

2 сезон

iTunes

1 сезон

1

iTunes

iTunes

iTunes

1 сезон

RePack

30

ИГРА 18+

pack

ВАЖНО

!!Акция!!

Alien_RageХит недели

RePack

MK11
pack

Забери бонус

RePack

jed

!!Акция!!

Alien_Rage

RePack

fifa19

RePack

Assassins Creed: Odyssey

RePack

NEED FOR SPEED™ PAYBACK

4 сезон

9 сезон

Бесстыжие 9 сезон

Все сериалы

все сериалы на PB.wtf

RePack

FAR CRY 5
  

Хемлок Гроув / Hemlock Grove / Сезон: 1 / Серии 1-13 из 13 (Т.Дж. Скотт, Деран Сарафян) [2013, США, Ужасы, Фантастика, Триллер, WEB-DLRip-AVC] MVO [LostFilm] piratbit.org

Хемлок Гроув через торрент piratbit.org

Раздают: 4 [ 0 KB/s ] Качают: 1 [ 0 KB/s ]
Размер: 10.53 GB | Добавлен: 2 д. 22 ч. назад | Торрент скачан:23 раза
Скачать  

18-10-2020 01:47 Хемлок Гроув Скачать торрент  

Хемлок Гроув / Hemlock Grove


  • Год выпуска: 2013
  • Страна: США
  • Жанр: Ужасы, Фантастика, Триллер
  • Продолжительность: ~ 00:50:00 (Серия)
  • Перевод: Профессиональный многоголосый [LostFilm]
  • Режиссер: Т.Дж. Скотт, Деран Сарафян
  • В ролях:
    Лили Тейлор, Фамке Янссен, Билл Скарсгард, Дюгрэй Скотт, Джоэль Де Ла Фуэнте, Лэндон Либуарон, Пенелопа Митчелл, Фрея Тингли, Каньехтио Хорн, Мадлен Мартин, Майкл Андреа и другие.



  • Самые спокойные и, на первый взгляд, непримечательные городки скрывают на своих улицах больше всего тайн. Не стал исключением и Хемлок Гроув, расположившийся в штате Пенсильвания. Смерть местной старшеклассницы, спешившей на свидание, не только нарушила мирное течение жизни города, но и положила начало целой серии жестоких убийств. В это же время в город приезжает семья Руманчеков, унаследовавшая старый домик на отшибе. Жители Хемлок Гроув, как это принято в любом маленьком городе, с подозрением отнеслись к чужакам, и очень скоро по городу поползли слухи о том, что в гибели людей виновен Питер Руманчек (Landon_Liboiron/Лэндон Либуарон). Парню пришлось бы совсем нелегко, не заведи он дружбу с Романом Годфри (Bill_Skarsgrd/Билл Скарсгард) — представителем самого влиятельного семейства в Хемлок Гроув. Оба приятеля, мягко говоря, со странностями, однако они начинают собственное расследование, чтобы восстановить справедливость и вернуть Питеру доброе имя. Удастся ли двум друзьям выстоять перед могущественными противниками, побороть собственные порочные желания и справиться с правдой, которая несет в себе лишь боль и ужас?..
  • Рейтинг:

    rating


  • Качество: WEB-DLRip-AVC
  • Формат: :MKV
  • Видео кодек: AVC
  • Аудио кодек: AC3
  • Видео: 1486 Кбит/сек (1800 Кбит/сек), 1024*576 (16:9), в 23,976 (24000/1001) кадра/сек, AVC
  • Аудио №1: русский 384 Кбит/сек, 48,0 КГц, 16 бит, 2 канала, AC-3|[LostFilm]|
  • Аудио №2: английский 384 Кбит/сек, 48,0 КГц, 16 бит, 2 канала, AC-3
    «Хемлок Гроув» — это мистический триллер, ставший первым оригинальным проектом Netflix в жанре ужасов. Сериал, основанный на дебютном романе американского писателя Brian_McGreevy/Брайана МакГриви, в первую же неделю после премьеры побил рекорд политической драмы «Карточный домик» по просмотрам и заработал миллионы поклонников. Телевизионная адаптация, продюсером и режиссером которой выступил мастер современного хоррора Eli_Roth/Элай Рот («Хостел», «Лихорадка»), подкупает не только проработанным сюжетом, потрясающим актерским составом и загадочной атмосферой... Уберите детей и слишком впечатлительных зрителей от экранов: «Хемлок Гроув» не стесняется кровавых, жестоких и откровенно отталкивающих сцен. Однако это вовсе не мешает повествованию, так как шоу, словно искусный акробат, балансирует между классикой готических ужасов и трэшевым сплэттером, заимствуя только самое лучшее от обоих поджанров. Все благодаря опытной и креативной съемочной команде, в которую вошли, в частности, Jennifer_Haley/Дженнифер Хэйли («Mindhunter/Охотник за разумом»), Mark_Verheiden/Марк Верхайден («Swamp_Thing/Болотная тварь», «Constantine/Константин»), Charles_H_Eglee/Чарльз Х. Игли («Dexter/Декстер», «The_Walking_Dead/Ходячие мертвецы»), Vincenzo_Natali/Винченцо Натали («American_Gods/Американские боги», «The_Strain/Штамм», «Куб»), David_Semel/Дэвид Семел («The_Man_in_the_High_Castle/Человек в высоком замке», «House_MD/Доктор Хаус»), David_Petrarca/Дэвид Петрарка («The_Alienist/Алиенист») и Deran_Sarafian/Деран Сарафян («Lost/Остаться в живых»).
    Внимание! Раздача ведётся путём добавления новых серий; при каждом добавлении создаётся новый торрент. Чтобы начать докачку новой серии, пользователям необходимо сделать следующее:
    (1) остановить скачивание,
    (2) удалить старый торрент у себя из клиента (старые серии удалять не надо),
    (3) скачать новый торрент и запустить его у себя в клиенте вместо старого, при этом указать клиенту путь в старую папку куда и должно происходить скачивание новых серий.

    Ваш клиент при этом должен произвести хеширование (проверку) старой папки (если не производит сам - помогите ему сделать это), и будет докачивать только те серии которых у вас ещё нет. Старые серии при этом не удаляются, а продолжают раздаваться!

    Eсли вы уже удалили старые серии, то предотвратить повторную закачку старых серий можно, отжав галочку в соответствующих местах при запуске нового торрента. По возможности, желательно не удалять старые серии как можно дольше чтобы релизёр не столько продолжал раздавать старые серии, а смог сконцентрироваться на новых.
    Общее
    Уникальный идентификатор : 78194623019288056214131970464066307789 (0x3AD3BC919317C5CF9F0C1946D01C06CD)
    Полное имя : I:\Хемлок Гроув (Hemlock Grove) Сезон 1\Hemlock.Grove.S01E04.WEB-DLRip-AVC.LostFilm.mkv
    Формат : Matroska
    Версия формата : Version 4
    Размер файла : 858 Мбайт
    Продолжительность : 52 м. 11 с.
    Общий поток : 2300 Кбит/сек
    Программа кодирования : XviD4PSP 8.0.59
    Библиотека кодирования : Lavf58.20.100
    ErrorDetectionType : Per level 1
    ENCODING_INFO : MATROSKA,WEBM > MKV Пользовательский

    Видео
    Идентификатор : 1
    Формат : AVC
    Формат/Информация : Advanced Video Codec
    Профиль формата : High@L3.1
    Настройки формата : CABAC / 4 Ref Frames
    Параметр CABAC формата : Да
    Параметр RefFrames формата : 4 кадра
    Идентификатор кодека : V_MPEG4/ISO/AVC
    Продолжительность : 52 м. 11 с.
    Битрейт : 1486 Кбит/сек
    Номинальный битрейт : 1800 Кбит/сек
    Ширина : 1024 пикселя
    Высота : 576 пикселей
    Соотношение сторон : 16:9
    Режим частоты кадров : Постоянный
    Частота кадров : 23,976 (24000/1001) кадра/сек
    Цветовое пространство : YUV
    Субдискретизация насыщенности : 4:2:0
    Битовая глубина : 8 бит
    Тип развёртки : Прогрессивная
    Бит/(Пиксели*Кадры) : 0.105
    Размер потока : 555 Мбайт (65%)
    Библиотека кодирования : x264 core 157 r2969 d4099dd
    Настройки программы : cabac=1 / ref=3 / deblock=1:-1:-1 / analyse=0x3:0x133 / me=hex / subme=7 / psy=1 / psy_rd=1.00:0.20 / mixed_ref=1 / me_range=16 / chroma_me=1 / trellis=1 / 8x8dct=1 / cqm=0 / deadzone=21,11 / fast_pskip=1 / chroma_qp_offset=-3 / threads=9 / lookahead_threads=1 / sliced_threads=0 / nr=0 / decimate=1 / interlaced=0 / bluray_compat=0 / constrained_intra=0 / bframes=3 / b_pyramid=2 / b_adapt=2 / b_bias=0 / direct=3 / weightb=1 / open_gop=0 / weightp=2 / keyint=240 / keyint_min=24 / scenecut=40 / intra_refresh=0 / rc_lookahead=40 / rc=cbr / mbtree=1 / bitrate=1800 / ratetol=1.0 / qcomp=0.60 / qpmin=0 / qpmax=69 / qpstep=4 / vbv_maxrate=1800 / vbv_bufsize=1285 / nal_hrd=none / filler=0 / ip_ratio=1.40 / aq=1:1.00
    Default : Да
    Forced : Нет
    ENCODING_INFO : H264 > X264 CBR 1800kbps HQ

    Аудио #1
    Идентификатор : 2
    Формат : AC-3
    Формат/Информация : Audio Coding 3
    Коммерческое название : Dolby Digital
    Идентификатор кодека : A_AC3
    Продолжительность : 52 м. 11 с.
    Вид битрейта : Постоянный
    Битрейт : 384 Кбит/сек
    Каналы : 2 канала
    ChannelLayout : L R
    Частота : 44,1 КГц
    Частота кадров : 28,711 кадров/сек (1536 SPF)
    Битовая глубина : 16 бит
    Метод сжатия : С потерями
    Размер потока : 143 Мбайт (17%)
    ServiceKind/String : Complete Main
    Default : Да
    Forced : Нет
    ENCODING_INFO : AC3 > AC3 CBR 384kbps

    Аудио #2
    Идентификатор : 3
    Формат : AC-3
    Формат/Информация : Audio Coding 3
    Коммерческое название : Dolby Digital
    Идентификатор кодека : A_AC3
    Продолжительность : 52 м. 11 с.
    Вид битрейта : Постоянный
    Битрейт : 384 Кбит/сек
    Каналы : 2 канала
    ChannelLayout : L R
    Частота : 48,0 КГц
    Частота кадров : 31,250 кадров/сек (1536 SPF)
    Битовая глубина : 16 бит
    Метод сжатия : С потерями
    Размер потока : 143 Мбайт (17%)
    ServiceKind/String : Complete Main
    Default : Нет
    Forced : Нет
    ENCODING_INFO : AC3 > AC3 CBR 384kbps



    Скриншоты:
    скриншот   скриншот   скриншот   скриншот   скриншот   скриншот   скриншот  
    скриншот  
    Внимание! В сериале присутствуют сцены сексуального характера!piratbit.org



  • Скачать Хемлок Гроув через торрент https://pic1.kartinco.top/images/12/1wr87.jpg Скачать фильм Хемлок Гроув через торрент бесплантно в хорошем качестве qw.png Самые спокойные и, на первый взгляд, непримечательные городки скрывают на своих улицах больше всего тайн. Не стал исключением и ... 8.3 10 3
    Info! Золотая раздача, скачанное не засчитывается.
    Торрент: Зарегистрирован [2020-10-18 04:07] · скачан: 23 раз
    Статус: √ проверено
    Размер: 10.53 GB
    Как cкачать? Как скачать Хемлок Гроув через торрент | qTorrent

    28-11-2019 20:33  

    Отключить всю рекламу на сайте

      Дорогой пользователь! Огромная просьба, поблагодарите релизера, оцените раздачу и оставьте свои комментарий, если Вы скачали Хемлок Гроув через торрент бесплатно! Внесите свою лепту в развитие PiratBit!
      Комментировать посты могут только пользователи прошедшие не сложную регистрацию
      Показать сообщения:    

      Хемлок Гроув через торрент
      Скачать бесплатно Хемлок Гроув
      Хемлок Гроув скачать торрент
      Хемлок Гроув смотреть онлайн
      Cкачать фильм Хемлок Гроув бесплатно
      Хемлок Гроув скачать торрент в хорошем качестве
      Хемлок Гроув смотреть онлайн бесплатно в хорошем качестве


      Вы не можете начинать темы
      Вы не можете отвечать на сообщения
      Вы не можете редактировать свои сообщения
      Вы не можете удалять свои сообщения
      Вы не можете голосовать в опросах
      Вы не можете прикреплять файлы к сообщениям
      Вы можете скачивать файлы