Ссылка на приватное зеркало нашего сайта всего за 1$. Внимание количество ограничено!!!

2 сезон

iTunes

1 сезон

1

iTunes

iTunes

iTunes

1 сезон

RePack

30

ИГРА 18+

pack

ВАЖНО

!!Акция!!

Alien_RageХит недели

RePack

MK11
pack

Забери бонус

RePack

jed

!!Акция!!

Alien_Rage

RePack

fifa19

RePack

Assassins Creed: Odyssey

RePack

NEED FOR SPEED™ PAYBACK

4 сезон

9 сезон

Бесстыжие 9 сезон

Все сериалы

все сериалы на PB.wtf

RePack

FAR CRY 5
  

Ты только верь / Послушная жена / Серии: 1-4 из 4 (Игорь Москвитин) [2019, Мелодрама, HDTV 1080i] piratbit.org

Ты только верь через торрент piratbit.org

Раздают: 1 [ 613 KB/s ]
Размер: 9.59 GB | Добавлен: 6 д. назад | Торрент скачан:8 раз
Скачать  

18-10-2020 02:36 Ты только верь Скачать торрент  

Ты только верь / Послушная жена
Год выпуска: 2019
Страна: Украина
Выпущено: Star Media
Жанр: Мелодрама
Продолжительность: ~ 00:45:00 серия
Перевод: Не требуется
Субтитры: отсутствуют

Режиссер: Игорь Москвитин

В ролях: Ольга Сухарева, Александр Давыдов (IV), Тимофей Каратаев, Алла Масленникова, Валерия Ходос, Денис Роднянский, Инга Нагорная, Никита Пархоменко, Данила Бочков

Описание: По мнению друзей и знакомых, у Елены Соколовской была не жизнь, а сказка: богатый муж, мудрая свекровь, сын - отличник и спортсмен. А еще вот-вот родится дочь. Но автоавария разбила эту сказку вдребезги, и в обломках отразилась реальность: измена, ложь, подлость, одиночество. Спасти Елену от падения в пучину безумия оказались способны лишь маленькая Маша и ее папа Андрей...

Качество: HDTV 1080i
Формат: TS

Видео: MPEG-4 AVC, ~ 7100 Кбит/с, 1920x1080, 25 Кадр/с
Аудио: Русский (MP2, 2 ch, 192 Кбит/с)
скриншот  скриншот  скриншот  скриншот  

Общее
Идентификатор : 1 (0x1)
Полное имя : C:\Poslushnaya.zhena.2019.HDTV.1080i\Poslushnaya.zhena.01.2019.HDTV.1080i.ts
Формат : MPEG-TS
Размер файла : 2,40 Гбайт
Продолжительность : 44 м. 52 с.
Режим общего битрейта : Переменный
Общий поток : 7642 Кбит/сек

Видео
Идентификатор : 2911 (0xB5F)
Идентификатор меню : 1485 (0x5CD)
Формат : AVC
Формат/Информация : Advanced Video Codec
Профиль формата : High@L4
Настройки формата : CABAC / 4 Ref Frames
Параметр CABAC формата : Да
Параметр RefFrames формата : 4 кадра
Идентификатор кодека : 27
Продолжительность : 44 м. 52 с.
Битрейт : 7070 Кбит/сек
Ширина : 1920 пикселей
Высота : 1080 пикселей
Соотношение сторон : 16:9
Частота кадров : 25,000 кадров/сек
Цветовое пространство : YUV
Субдискретизация насыщенности : 4:2:0
Битовая глубина : 8 бит
Тип развёртки : MBAFF
Метод сохранения типа развёртки : Чередующиеся поля
Порядок развёртки : Верхнее поле первое
Бит/(Пиксели*Кадры) : 0.136
Размер потока : 2,22 Гбайт (93%)

Аудио
Идентификатор : 2912 (0xB60)
Идентификатор меню : 1485 (0x5CD)
Формат : MPEG Audio
Версия формата : Version 1
Профиль формата : Layer 2
Настройки формата : Joint stereo / Intensity Stereo + MS Stereo
Идентификатор кодека : 3
Продолжительность : 44 м. 52 с.
Вид битрейта : Постоянный
Битрейт : 192 Кбит/сек
Каналы : 2 канала
Частота : 48,0 КГц
Частота кадров : 41,667 кадра/сек (1152 SPF)
Метод сжатия : С потерями
Задержка видео : -40 мс.
Размер потока : 61,6 Мбайт (3%)
Язык : Russian

piratbit.org



Скачать Ты только верь через торрент https://i111.fastpic.ru/big/2019/1201/89/e605c545ec72bfe8a93a9146ca303889.jpg Скачать фильм Ты только верь через торрент бесплантно в хорошем качестве Описание: По мнению друзей и знакомых, у Елены Соколовской была не жизнь, а сказка: богатый муж, мудрая свекровь, сын - отличник и ... 10 10 2
Торрент: Зарегистрирован [2020-10-18 02:36] · скачан: 8 раз
Статус: √ проверено
Размер: 9.59 GB
Как cкачать? Как скачать Ты только верь через торрент | qTorrent

% Раздел Тема Автор DL S | L
Наши сериалы [ 4.63 GB ] Ты только верь / Послушная жена / Серии: 1-4 из 4 [2019 Мело HDTVRip 720p] bober100 Скачать
2 | 0
Наши сериалы [ 2.26 GB ] Ты только верь / Послушная жена / Серии: 1-4 из 4 [2019 Мело WEB-DLRip-AVC] bober100 Скачать
1 | 0
Наши сериалы [ 2.29 GB ] Ты только верь / Послушная жена / Серии: 1-4 из 4 [2019 Мело WEB-DLRip] bober100 Скачать
3 | 1

28-11-2019 20:33  

Отключить всю рекламу на сайте

    Дорогой пользователь! Огромная просьба, поблагодарите релизера, оцените раздачу и оставьте свои комментарий, если Вы скачали Ты только верь через торрент бесплатно! Внесите свою лепту в развитие PiratBit!
    Комментировать посты могут только пользователи прошедшие не сложную регистрацию
    Показать сообщения:    

    Ты только верь через торрент
    Скачать бесплатно Ты только верь
    Ты только верь скачать торрент
    Ты только верь смотреть онлайн
    Cкачать фильм Ты только верь бесплатно
    Ты только верь скачать торрент в хорошем качестве
    Ты только верь смотреть онлайн бесплатно в хорошем качестве


    Вы не можете начинать темы
    Вы не можете отвечать на сообщения
    Вы не можете редактировать свои сообщения
    Вы не можете удалять свои сообщения
    Вы не можете голосовать в опросах
    Вы не можете прикреплять файлы к сообщениям
    Вы можете скачивать файлы