Ссылка на приватное зеркало нашего сайта всего за 1$. Внимание количество ограничено!!!

2 сезон

iTunes

1 сезон

1

iTunes

iTunes

iTunes

1 сезон

RePack

30

ИГРА 18+

pack

ВАЖНО

!!Акция!!

Alien_RageХит недели

RePack

MK11
pack

Забери бонус

RePack

jed

!!Акция!!

Alien_Rage

RePack

fifa19

RePack

Assassins Creed: Odyssey

RePack

NEED FOR SPEED™ PAYBACK

4 сезон

9 сезон

Бесстыжие 9 сезон

Все сериалы

все сериалы на PB.wtf

RePack

FAR CRY 5
  

Поднимаясь со дна / Вверх дном / This Way Up / Сезон: 1 / Серии: 1-6 из 6 (Алекс Винклер) [2019, Комедия, ситком, WEB-DL 1080p] MVO [Кириллица / Amedia] piratbit.org

Поднимаясь со дна через торрент piratbit.org

Раздают: 1 [ 0 KB/s ]
Размер: 4.48 GB | Добавлен: 7 д. назад | Торрент скачан:14 раз
Скачать  

18-10-2020 03:05 Поднимаясь со дна Скачать торрент  

Поднимаясь со дна | Вверх дном | This Way Up
Год выпуска: 2019
Страна: Великобритания
Студия: Merman
Жанр: Комедия, ситком
Продолжительность: ~ 00:24:00
Перевод: Профессиональный (многоголосый) | Кириллица по заказу Amedia
Субтитры: Русские (Кириллица), английские

Режиссер: Алекс Винклер

rating

В ролях: Эйслинг Беа, Шэрон Хорган, Индира Варма, Кадифф Кирван, Аасиф Мандви, Дориан Гровер, Тодор Максим, Пик Сен Лим, Тобайас Мензис, Джассем Мугари

Описание: Эйн около тридцати, она только что вернулась из психиатрической клиники, где восстанавливалась, как она сама говорит, после «небольшого нервного срыва», и за ней берётся присматривать старшая сестра Шона. Постепенно Эйн возвращается к обычной жизни: находит работу учителем английского языка, устраивается репетитором к французскому мальчику, влюбляется в его отца, отрешенного одиночку, и пытается разобраться с токсичным бывшим.

Качество: WEB-DL 1080p
Формат: MKV

Видео: MPEG-4 AVC, ~ 4300 Кбит/с, 1920x1080
Аудио#1: Русский (АС3, 6 ch, 384 Кбит/с)
Аудио#2: английский (E-AC3, 6 ch, 256 Кбит/с)
скриншот  скриншот  скриншот  скриншот  

Complete name : This.Way.Up.S01.2019.WEB-DL.1080p.ExKinoRayThis.Way.Up.S01.E01.2019.WEB-DL.1080p.ExKinoRay.mkv
Format : Matroska
Format version : Version 2
File size : 834 MiB
Duration : 23 min 39 s
Overall bit rate : 4 927 kb/s
Encoded date : UTC 2020-10-17 22:04:24
Writing application : mkvmerge v5.8.0 ('No Sleep / Pillow') built on Sep 2 2012 15:37:04
Writing library : libebml v1.2.3 + libmatroska v1.3.0

Video
ID : 1
Format : AVC
Format/Info : Advanced Video Codec
Format profile : High@L4
Format settings : CABAC / 4 Ref Frames
Format settings, CABAC : Yes
Format settings, Reference : 4 frames
Codec ID : V_MPEG4/ISO/AVC
Duration : 23 min 39 s
Bit rate : 4 189 kb/s
Width : 1 920 pixels
Height : 1 080 pixels
Display aspect ratio : 16:9
Frame rate mode : Constant
Frame rate : 25.000 FPS
Color space : YUV
Chroma subsampling : 4:2:0
Bit depth : 8 bits
Scan type : Progressive
Bits/(Pixel*Frame) : 0.081
Stream size : 709 MiB (85%)
Language : English
Default : Yes
Forced : No

Audio #1
ID : 2
Format : AC-3
Format/Info : Audio Coding 3
Commercial name : Dolby Digital
Codec ID : A_AC3
Duration : 23 min 39 s
Bit rate mode : Constant
Bit rate : 384 kb/s
Channel(s) : 6 channels
Channel layout : L R C LFE Ls Rs
Sampling rate : 48.0 kHz
Frame rate : 31.250 FPS (1536 SPF)
Compression mode : Lossy
Stream size : 65.0 MiB (8%)
Language : Russian
Service kind : Complete Main
Default : Yes
Forced : No

Audio #2
ID : 3
Format : E-AC-3
Format/Info : Enhanced AC-3
Commercial name : Dolby Digital Plus
Codec ID : A_EAC3
Duration : 23 min 39 s
Bit rate mode : Constant
Bit rate : 256 kb/s
Channel(s) : 6 channels
Channel layout : L R C LFE Ls Rs
Sampling rate : 48.0 kHz
Frame rate : 31.250 FPS (1536 SPF)
Compression mode : Lossy
Stream size : 43.3 MiB (5%)
Language : English
Service kind : Complete Main
Default : No
Forced : No

Text #1
ID : 4
Format : UTF-8
Codec ID : S_TEXT/UTF8
Codec ID/Info : UTF-8 Plain Text
Language : Russian
Default : No
Forced : No

Text #2
ID : 5
Format : UTF-8
Codec ID : S_TEXT/UTF8
Codec ID/Info : UTF-8 Plain Text
Language : English
Default : No
Forced : No

Menu
00:00:00.000 : en:Chapter 1
00:08:24.720 : en:Chapter 2
00:11:51.760 : en:Chapter 3
00:16:01.440 : en:Chapter 4

Внимание! Раздача ведётся путём добавления новых серий; при каждом добавлении создаётся новый торрент.
Чтобы начать докачку новой серии, пользователям необходимо сделать следующее:
1. Остановить скачивание;
2. Удалить старый торрент у себя из клиента (старые серии удалять не надо);
3. Скачать новый торрент и запустить его у себя в клиенте вместо старого, при этом указать клиенту путь в старую папку куда и должно происходить скачивание новых серий. Ваш клиент при этом должен произвести хеширование (проверку) старой папки и будет докачивать только те серии, которых у вас ещё нет. Старые серии при этом не удаляются, а продолжают раздаваться! Eсли вы уже удалили старые серии, то предотвратить повторную закачку старых серий можно, отжав галочку в соответствующих местах при запуске нового торрента.

piratbit.org



Скачать Поднимаясь со дна через торрент https://a.radikal.ru/a34/2010/46/e1ed9931218a.jpg Скачать фильм Поднимаясь со дна через торрент бесплантно в хорошем качестве Описание: Эйн около тридцати, она только что вернулась из психиатрической клиники, где восстанавливалась, как она сама говорит, после ... 10 10 2
Торрент: Зарегистрирован [2020-10-19 04:56] · скачан: 14 раз
Статус: √ проверено
Размер: 4.48 GB
Как cкачать? Как скачать Поднимаясь со дна через торрент | qTorrent

28-11-2019 20:33  

Отключить всю рекламу на сайте

    Дорогой пользователь! Огромная просьба, поблагодарите релизера, оцените раздачу и оставьте свои комментарий, если Вы скачали Поднимаясь со дна через торрент бесплатно! Внесите свою лепту в развитие PiratBit!
    Комментировать посты могут только пользователи прошедшие не сложную регистрацию
    Показать сообщения:    

    Поднимаясь со дна через торрент
    Скачать бесплатно Поднимаясь со дна
    Поднимаясь со дна скачать торрент
    Поднимаясь со дна смотреть онлайн
    Cкачать фильм Поднимаясь со дна бесплатно
    Поднимаясь со дна скачать торрент в хорошем качестве
    Поднимаясь со дна смотреть онлайн бесплатно в хорошем качестве


    Вы не можете начинать темы
    Вы не можете отвечать на сообщения
    Вы не можете редактировать свои сообщения
    Вы не можете удалять свои сообщения
    Вы не можете голосовать в опросах
    Вы не можете прикреплять файлы к сообщениям
    Вы можете скачивать файлы