Ссылка на приватное зеркало нашего сайта всего за 1$. Внимание количество ограничено!!!

2 сезон

iTunes

1 сезон

1

iTunes

iTunes

iTunes

1 сезон

RePack

30

ИГРА 18+

pack

ВАЖНО

!!Акция!!

Alien_RageХит недели

RePack

MK11
pack

Забери бонус

RePack

jed

!!Акция!!

Alien_Rage

RePack

fifa19

RePack

Assassins Creed: Odyssey

RePack

NEED FOR SPEED™ PAYBACK

4 сезон

9 сезон

Бесстыжие 9 сезон

Все сериалы

все сериалы на PB.wtf

RePack

FAR CRY 5
  

UFC Fight Night 180: Ortega vs. The Korean Zombie / Prelims & Main Card [18.10.2020, MMA, RU, UFC ТВ HD, IPTVRip 1080p] piratbit.org

UFC Fight Night 180: Ortega vs. The Korean Zombie через торрент piratbit.org

Качают: 1 [ 0 KB/s ]
Размер: 8.18 GB | Добавлен: 8 д. назад | Торрент скачан:18 раз
Скачать  

18-10-2020 03:41 UFC Fight Night 180: Ortega vs. The Korean Zombie Скачать торрент  

UFC Fight Night 180: Ortega vs. The Korean Zombie / Prelims & Main Card
Год выпуска: 18.10.2020
Вид спорта: MMA
Продолжительность: 04:36:03
Язык комментариев: Русский
Комментаторы: Олег Володин, Давид Багдасарян
Выпущено: Россия, UFC ТВ HD

Описание: 18 октября на острове Яс в Абу-Даби, состоялся турнир UFC Fight Night 180. Главным событием которого стал бой в полулегком весе между Брайэном Ортега и Чэн Сон Джунгом. Ортега в последнем бою проиграл экс-чемпиону дивизиона Максу Холловэйю и не выступал уже почти 2 года. Корейский Зомби же за это время смог одержать убедительные победы над Ренато Мойкано и Фрэнки Эдгаром. По некоторым заявлением руководства UFC, победитель данного боя сможет получить шанс на бой с чемпионом весовой – Александром Волкановски.

Автор релиза:
Реклама: Отсутствует

Качество: IPTVRip 1080p
Формат: MKV

Видео: MPEG-4 AVC, 1920x1080, ~ 4055 Кбит/с, 25.000 FPS
Аудио: AAC, 2 ch, 192 Кбит/с, 48.0 kHz
Предварительный кард:

Легкий вес: Джейми Малларки - Фарес Зиам
Средний вес: Импа Юн Ёнг Парк - Джон Филлипс
Женщины, наилегчайший вес: Джиллиан Робертсон - Полиана Ботельо
Легкий вес: Матеуш Гамрот - Гурам Кутателадзе

Основной кард:

Полулегкий вес: Томас Алмейда - Джонатан Мартинез
Полусредний вес: Клаудио Сильва - Джеймс Краус
Полутяжелый вес: Джим Крут - Модестас Букаускас
Женщины, наилегчайший вес: Кэтлин Чукагян - Джессика Андрадэ
Полулегкий вес: Брайэн Ортега - Чэн Сон Джунг
скриншот  скриншот  скриншот  скриншот  
Общее
Уникальный идентификатор : 267011481729856645451075164438692481250 (0xC8E08A72E8BA60A7DF2AF7F5B24DC8E2)
Полное имя : D:\UFC.Fight.Night.180.(18.10.2020).(1080).7turza™\01.UFC.Fight.Night.180.Предварительный.Кард.7turza™.mkv
Формат : Matroska
Версия формата : Version 4
Размер файла : 3,42 Гбайт
Продолжительность : 1 ч. 55 м.
Режим общего битрейта : Переменный
Общий поток : 4237 Кбит/сек
Название фильма : UFC # from 7turza #
Дата кодирования : UTC 2020-10-18 00:28:41
Программа кодирования : mkvmerge v51.0.0 ('I Wish') 64-bit
Библиотека кодирования : libebml v1.4.0 + libmatroska v1.6.2
Attachments : poster.jpg

Видео
Идентификатор : 1
Формат : AVC
Формат/Информация : Advanced Video Codec
Профиль формата : High@L4
Настройки формата : CABAC / 4 Ref Frames
Параметр CABAC формата : Да
Параметр RefFrames формата : 4 кадра
Идентификатор кодека : V_MPEG4/ISO/AVC
Продолжительность : 1 ч. 55 м.
Вид битрейта : Переменный
Битрейт : 4045 Кбит/сек
Максимальный битрейт : 4500 Кбит/сек
Ширина : 1920 пикселей
Высота : 1080 пикселей
Соотношение сторон : 16:9
Режим частоты кадров : Постоянный
Частота кадров : 25,000 кадров/сек
Цветовое пространство : YUV
Субдискретизация насыщенности : 4:2:0
Битовая глубина : 8 бит
Тип развёртки : Прогрессивная
Бит/(Пиксели*Кадры) : 0.078
Размер потока : 3,26 Гбайт (95%)
Default : Да
Forced : Нет
Цветовой диапазон : Limited
Основные цвета : BT.709
Характеристики трансфера : BT.709
Коэффициенты матрицы : BT.709

Аудио
Идентификатор : 2
Формат : AAC LC
Формат/Информация : Advanced Audio Codec Low Complexity
Идентификатор кодека : A_AAC-2
Продолжительность : 1 ч. 55 м.
Битрейт : 192 Кбит/сек
Каналы : 2 канала
ChannelLayout : L R
Частота : 48,0 КГц
Частота кадров : 46,875 кадров/сек (1024 SPF)
Метод сжатия : С потерями
Размер потока : 156 Мбайт (4%)
Default : Да
Forced : Нет
piratbit.org



Скачать UFC Fight Night 180: Ortega vs. The Korean Zombie через торрент https://a.radikal.ru/a24/2010/57/4be9b39c4fcd.jpg Скачать фильм UFC Fight Night 180: Ortega vs. The Korean Zombie через торрент бесплантно в хорошем качестве Описание: 18 октября на острове Яс в Абу-Даби, состоялся турнир UFC Fight Night 180. Главным событием которого стал бой в полулегком весе ... 10 10 3
Торрент: Зарегистрирован [2020-10-18 03:41] · скачан: 18 раз
Статус: √ проверено
Размер: 8.18 GB
Как cкачать? Как скачать UFC Fight Night 180: Ortega vs. The Korean Zombie через торрент | qTorrent

28-11-2019 20:33  

Отключить всю рекламу на сайте

18-10-2020 05:36 UFC Fight Night 180: Ortega vs. The Korean Zombie Скачать торрент  

А где ещё два боя с Российскими бойцами?piratbit.org



18-10-2020 05:43 UFC Fight Night 180: Ortega vs. The Korean Zombie Скачать торрент  

Ждём Хабиба!!! надеюсь оперативненько выложатpiratbit.org



18-10-2020 06:26 UFC Fight Night 180: Ortega vs. The Korean Zombie Скачать торрент  

mokaq писал(а):

Ждём Хабиба!!! надеюсь оперативненько выложат

А зачем запись смотреть,вот ссылка на трансляцию https://ufc-hd.ru/piratbit.org



    Дорогой пользователь! Огромная просьба, поблагодарите релизера, оцените раздачу и оставьте свои комментарий, если Вы скачали UFC Fight Night 180: Ortega vs. The Korean Zombie через торрент бесплатно! Внесите свою лепту в развитие PiratBit!
    Комментировать посты могут только пользователи прошедшие не сложную регистрацию
    Показать сообщения:    

    UFC Fight Night 180: Ortega vs. The Korean Zombie через торрент
    Скачать бесплатно UFC Fight Night 180: Ortega vs. The Korean Zombie
    UFC Fight Night 180: Ortega vs. The Korean Zombie скачать торрент
    UFC Fight Night 180: Ortega vs. The Korean Zombie смотреть онлайн
    Cкачать фильм UFC Fight Night 180: Ortega vs. The Korean Zombie бесплатно
    UFC Fight Night 180: Ortega vs. The Korean Zombie скачать торрент в хорошем качестве
    UFC Fight Night 180: Ortega vs. The Korean Zombie смотреть онлайн бесплатно в хорошем качестве


    Вы не можете начинать темы
    Вы не можете отвечать на сообщения
    Вы не можете редактировать свои сообщения
    Вы не можете удалять свои сообщения
    Вы не можете голосовать в опросах
    Вы не можете прикреплять файлы к сообщениям
    Вы можете скачивать файлы