2 сезон

iTunes

WEBRip

1

2 сезон

iTunes

1 сезон

1 сезон

RePack

30

Новинка

ВАЖНО

ИГРА 18+

pack

RePack

MK11
pack

Легкие деньги

RePack

jed

RePack

fifa19

RePack

RDR2

RePack

NEED FOR SPEED™ PAYBACK

4 сезон

9 сезон

Бесстыжие 9 сезон

Все сериалы

все сериалы на PB.wtf

RePack

FAR CRY 5

Anonymous, доброй ночи, мы не успеваем собрать деньги на оплату серверов за февраль, помогите нам пожалуйста в это трудное время. В качестве благодарности мы отключим Вам всю рекламу на сайте (укажите свой ник в строку Ваше имя)!

×
  
Magnet ссылка

Любовь и монстры / Love and Monsters (Майкл Мэтьюз) [2020 г., комедия, фантастика, боевик, приключения, WEBRip 720p] [Ukr MVO] (HDrezka Studio) piratbit.org

Любовь и монстры через торрент piratbit.org

Раздают: 2 [ 0 KB/s ]
Размер: 3.62 GB | Добавлен: 4 мес. 7 д. назад | Торрент скачан:59 раз
Скачать  

19-10-2020 19:29 Любовь и монстры Скачать торрент  

Любовь и монстры / Love and Monsters
Год выпуска: 2020
Страна: Канада, США
Жанр: комедия, фантастика, боевик, приключения
Продолжительность: 01:49:25
Перевод: Украинский (профессиональный, многоголосный) *HDrezka Studio*
Субтитры: украинские (forced), английские

Режиссер: Майкл Мэтьюз

В ролях: Дилан О’Брайен, Джессика Хенвик, Майкл Рукер, Дэниэл Юинг, Ариана Гринблатт, Эллен Холлман, Tre Hale, Пачаро Мзембе, Сени Прити, Амали Голден

Описание: Семь лет назад человечество взорвало подлетавший к Земле астероид, но после этого столкнулось с последствиями - некоторые земные обитатели мутировали в гигантских монстров. Через год население Земли сократилось на 95%. У Джоэла погибли родители, и с тех пор он в компании ткаих же выживших обитает в подземном бункере. Недавно он поймал радиосигнал другой колонии, где живет его подростковая любовь Эйми, и теперь решил до неё добраться. И это будет непросто, ведь у Джоэла нет никаких навыков выживания, и более того - при виде монстров он впадает в оцепенение.

rating

Качество: WEBRip 720p
Формат: MKV
Видео кодек: H.264
Аудио кодек: AC3
Видео: AVC, 1280х532, 3 626 kb/s, 23,976
Аудио Ukr: 48 kHz, AC3 Dolby Digital, 6 ch, ~384.00 kbps - HDrezka Studio
Аудио Eng: 48 kHz, AC3 Dolby Digital, 6 ch, ~640.00 kbps
скриншот   скриншот   скриншот  
General
Unique ID : 235169858116902020933400169674891009425 (0xB0EC11327A0B9EFD645EC9AC53B71D91)
Complete name : G:\Love.and.Monsters.2020.WEBRip.720p.ukr.5.1.HDREZKA.STUDIO.mkv
Format : Matroska
Format version : Version 4
File size : 3.62 GiB
Duration : 1 h 49 min
Overall bit rate : 4 745 kb/s
Encoded date : UTC 2020-10-19 17:34:52
Writing application : mkvmerge v45.0.0 ('Heaven in Pennies') 64-bit
Writing library : libebml v1.3.10 + libmatroska v1.5.2

Video
ID : 1
Format : AVC
Format/Info : Advanced Video Codec
Format profile : Main@L3.1
Format settings : CABAC / 1 Ref Frames
Format settings, CABAC : Yes
Format settings, Reference : 1 frame
Format settings, GOP : M=1, N=30
Codec ID : V_MPEG4/ISO/AVC
Duration : 1 h 49 min
Bit rate : 3 626 kb/s
Width : 1 280 pixels
Height : 532 pixels
Display aspect ratio : 2.40:1
Frame rate mode : Constant
Frame rate : 23.976 (24000/1001) FPS
Color space : YUV
Chroma subsampling : 4:2:0
Bit depth : 8 bits
Scan type : Progressive
Bits/(Pixel*Frame) : 0.222
Stream size : 2.76 GiB (76%)
Language : English
Default : Yes
Forced : No
Duration_Source : General_Duration

Audio #1
ID : 2
Format : AC-3
Format/Info : Audio Coding 3
Commercial name : Dolby Digital
Codec ID : A_AC3
Duration : 1 h 49 min
Bit rate mode : Constant
Bit rate : 384 kb/s
Channel(s) : 6 channels
Channel layout : L R C LFE Ls Rs
Sampling rate : 48.0 kHz
Frame rate : 31.250 FPS (1536 SPF)
Compression mode : Lossy
Stream size : 300 MiB (8%)
Language : Ukrainian
Service kind : Complete Main
Default : Yes
Forced : No
Duration_Source : General_Duration

Audio #2
ID : 3
Format : AC-3
Format/Info : Audio Coding 3
Commercial name : Dolby Digital
Codec ID : A_AC3
Duration : 1 h 49 min
Bit rate mode : Constant
Bit rate : 640 kb/s
Channel(s) : 6 channels
Channel layout : L R C LFE Ls Rs
Sampling rate : 48.0 kHz
Frame rate : 31.250 FPS (1536 SPF)
Compression mode : Lossy
Delay relative to video : 13 s 0 ms
Stream size : 499 MiB (13%)
Language : English
Service kind : Complete Main
Default : No
Forced : No
Duration_Source : General_Duration

Text #1
ID : 4
Format : UTF-8
Codec ID : S_TEXT/UTF8
Codec ID/Info : UTF-8 Plain Text
Title : TEXT ONLY
Language : Ukrainian
Default : No
Forced : No

Text #2
ID : 5
Format : UTF-8
Codec ID : S_TEXT/UTF8
Codec ID/Info : UTF-8 Plain Text
Language : English
Default : No
Forced : No
piratbit.org



Скачать Любовь и монстры через торрент https://i114.fastpic.ru/big/2020/1019/e9/0bfa50e716340d547c0290019c5c5ae9.jpeg Скачать фильм Любовь и монстры через торрент бесплантно в хорошем качестве Описание: Семь лет назад человечество взорвало подлетавший к Земле астероид, но после этого столкнулось с последствиями - некоторые земные ... 10 10 2
Торрент: Зарегистрирован [2020-10-19 19:29] · скачан: 59 раз
Статус: √ проверено
Размер: 3.62 GB
Как cкачать? Как скачать Любовь и монстры через торрент | UTorrent

% Раздел Тема Автор DL S | L
Фильмы [HD 720p, 1080p] (Хороший звук DUB, MVO) [ 9.25 GB ] Любовь и монстры / Проблемы с монстром / Love and Monsters / Monster Problems [2020 BDRip 1080p] MVO [HDRezka Studio] bober100 Скачать
10 | 0
Фильмы 2019-2020 [DVDrip, WEB-DLRip, HDrip] (DUB, MVO) [ 1.46 GB ] Любовь и монстры / Проблемы с монстром / Love and Monsters / Monster Problems [2020 BDRip] MVO [HDRezka Studio] bober100 Скачать
9 | 0
Фильмы 2019-2020 [DVDrip, WEB-DLRip, HDrip] (DUB, MVO) [ 2.19 GB ] Любовь и монстры / Проблемы с монстром / Love and Monsters / Monster Problems [2020 BDRip] MVO [HDRezka Studio] bober100 Скачать
3 | 0
Фильмы 2019-2020 [DVDrip, WEB-DLRip, HDrip] (DUB, MVO) [ 1.51 GB ] Любовь и монстры / Проблемы с монстром / Love and Monsters / Monster Problems [2020 WEB-DLRip-AVC] [MVO] [HDRezka Studio] от MediaBit Lithuania Скачать
5 | 0

28-11-2019 20:33  

Отключить всю рекламу на сайте

20-10-2020 07:01 Любовь и монстры Скачать торрент  

прикольный фильм 10 из 10 даже как то странно что "не затронули" темы феминизма, лгбт и прочей "новомодной" хрени которая уже в каждом фильме/сериале.piratbit.org



    Дорогой пользователь! Огромная просьба, поблагодарите релизера, оцените раздачу и оставьте свои комментарий, если Вы скачали Любовь и монстры через торрент бесплатно! Внесите свою лепту в развитие PiratBit!
    Комментировать посты могут только пользователи прошедшие не сложную регистрацию
    Показать сообщения:    

    Любовь и монстры через торрент
    Скачать бесплатно Любовь и монстры
    Любовь и монстры скачать торрент
    Любовь и монстры смотреть онлайн
    Cкачать фильм Любовь и монстры бесплатно
    Любовь и монстры скачать торрент в хорошем качестве
    Любовь и монстры смотреть онлайн бесплатно в хорошем качестве


    Вы не можете начинать темы
    Вы не можете отвечать на сообщения
    Вы не можете редактировать свои сообщения
    Вы не можете удалять свои сообщения
    Вы не можете голосовать в опросах
    Вы не можете прикреплять файлы к сообщениям
    Вы можете скачивать файлы