1 сезон

3 сезон

iTunes

1

iTunes

DUB Netflix

iTunes

13

1 сезон

RePack

30

Deluxe

pack

Легкие деньги

ВАЖНО

ИГРА 18+

pack

RePack

MK11

RePack

jed

RePack

fifa19

RePack

RDR2

RePack

NEED FOR SPEED™ PAYBACK

4 сезон

9 сезон

Бесстыжие 9 сезон

Все сериалы

все сериалы на PB.wtf

RePack

FAR CRY 5

Anonymous, доброй ночи, мы не успеваем до 1 числа собрать деньги на оплату серверов, помогите нам пожалуйста в это трудное время. В качестве благодарности мы отключим Вам всю рекламу на сайте (укажите свой ник в строку Ваше имя)!

×
  
Magnet ссылка

Территория / Сезон: 1 / Серии: 1-7 из 7 (Игорь Твердохлебов) [2020, Драма, мистика, HDTV 1080i] piratbit.org

Территория через торрент piratbit.org

Размер: 11.61 GB | Добавлен: 7 мес. назад | Торрент скачан:198 раз
Скачать  

20-10-2020 04:44 Территория Скачать торрент  

Территория
Год выпуска: 2020
Страна: Россия
Выпущено: Good Story Media по заказу ТНТ
Жанр: Драма, мистика
Продолжительность: ~ 00:52:00
Перевод: Не требуется
Субтитры: отсутствуют

Режиссер: Игорь Твердохлебов



В ролях: Андрей Мерзликин, Глеб Калюжный, Анастасия Чистякова (II), Алексей Розин, Ксения Отинова, Клавдия Коршунова, Николай Шрайбер, Сергей Колесов, Евгений Мундум, Константин Итунин, Олег Ягодин, Алексей Корсуков, Вера Чугайнова, Михаил Орлов (II), Кирилл Лепихин, Елена Стражникова, Виктор Сосновцев, Александр Федосеев (II), Анна Синякина, Владимир Селезнёв (II)

Описание: 19-летний Егор Чудинов отправляется на поиски родителей, которые пропали во время этнографической экспедиции по Пермскому краю. Вместе со своим дядей Николаем и двумя случайными попутчицами — студентками-филологами Таней и Надей — Егор продвигается вглубь территории, которая живет по своим законам и традициям. Здесь мрачная природа, здесь в землянках живут отшельники, а болезни лечат у колдунов, и где-то среди дремучих лесов бродит медвежий шаман. Вначале Егор скептически относится к рассказам о древних существах коми-пермяцкой мифологии, которые могут обитать в этих краях, но постепенно он понимает, что мир намного шире его представлений. С каждым днем и с каждым рискованным приключением Егор получает знаки остановиться и не переступать черту. Но желание найти родных и разгадать давно терзающую его тайну прошлого оказывается сильнее.

Качество: HDTV 1080i
Формат: TS

Видео: MPEG-4 AVC, 1920х1080 (16:9), 25 fps, AVC MPEG-4 (x264), High@L4.0 ~ 5000 kbps avg, 0.095 bit/pixel
Аудио: 48 kHz, MPEG Layer 2, 2 ch, ~ 192 kbps avg
скриншот  скриншот  скриншот  скриншот  

Общее
Идентификатор : 1 (0x1)
Полное имя : C:\Territoriya.2020.HDTV.(1080i).ExKinoRay\Territoriya.E01.2020.HDTV.(1080i).ExKinoRAy.ts
Формат : MPEG-TS
Размер файла : 1,96 Гбайт
Продолжительность : 51 м. 49 с.
Режим общего битрейта : Переменный
Общий поток : 5405 Кбит/сек

Видео
Идентификатор : 211 (0xD3)
Идентификатор меню : 2207 (0x89F)
Формат : AVC
Формат/Информация : Advanced Video Codec
Профиль формата : High@L4
Настройки формата : CABAC / 4 Ref Frames
Параметр CABAC формата : Да
Параметр RefFrames формата : 4 кадра
Идентификатор кодека : 27
Продолжительность : 51 м. 49 с.
Битрейт : 4944 Кбит/сек
Ширина : 1920 пикселей
Высота : 1080 пикселей
Соотношение сторон : 16:9
Частота кадров : 25,000 кадров/сек
Стандарт вещания : Component
Цветовое пространство : YUV
Субдискретизация насыщенности : 4:2:0
Битовая глубина : 8 бит
Тип развёртки : Чересстрочная
Метод сохранения типа развёртки : Раздельные поля
Порядок развёртки : Верхнее поле первое
Бит/(Пиксели*Кадры) : 0.095
Размер потока : 1,79 Гбайт (91%)
Цветовой диапазон : Limited
Основные цвета : BT.709
Характеристики трансфера : BT.709
Коэффициенты матрицы : BT.709

Аудио
Идентификатор : 221 (0xDD)
Идентификатор меню : 2207 (0x89F)
Формат : MPEG Audio
Версия формата : Version 1
Профиль формата : Layer 2
Идентификатор кодека : 3
Продолжительность : 51 м. 49 с.
Вид битрейта : Постоянный
Битрейт : 192 Кбит/сек
Каналы : 2 канала
Частота : 48,0 КГц
Частота кадров : 41,667 кадра/сек (1152 SPF)
Метод сжатия : С потерями
Задержка видео : -40 мс.
Размер потока : 71,2 Мбайт (4%)
Язык : Russian

Внимание! Раздача ведётся путём добавления новых серий; при каждом добавлении создаётся новый торрент.
Чтобы начать докачку новой серии, пользователям необходимо сделать следующее:
1. Остановить скачивание;
2. Удалить старый торрент у себя из клиента (старые серии удалять не надо);
3. Скачать новый торрент и запустить его у себя в клиенте вместо старого, при этом указать клиенту путь в старую папку куда и должно происходить скачивание новых серий. Ваш клиент при этом должен произвести хеширование (проверку) старой папки и будет докачивать только те серии, которых у вас ещё нет. Старые серии при этом не удаляются, а продолжают раздаваться! Eсли вы уже удалили старые серии, то предотвратить повторную закачку старых серий можно, отжав галочку в соответствующих местах при запуске нового торрента.

piratbit.org



Скачать Территория через торрент http://c.radikal.ru/c39/2010/60/cdaa6c37df51.png Скачать фильм Территория через торрент бесплантно в хорошем качестве Описание: 19-летний Егор Чудинов отправляется на поиски родителей, которые пропали во время этнографической экспедиции по Пермскому краю. ... 8.9 10 15
Торрент: Зарегистрирован [2020-10-23 07:12] · скачан: 198 раз
Статус: √ проверено
Размер: 11.61 GB
Как cкачать? Как скачать Территория через торрент | UTorrent

% Раздел Тема Автор DL S | L
TNT serials [ 10.16 GB ] Территория / Сезон: 1 / Серии: 1-7 из 7 [2020 WEBRip 1080p ] bober100 Скачать
12 | 2
TNT serials [ 3.97 GB ] Территория / Сезон: 1 / Серии: 1-7 из 7 [2020 WEBRip-AVC] bober100 Скачать
2 | 1
TNT serials [ 4.3 GB ] Территория / Сезон: 1 / Серии: 1-7 из 7 [2020 SATRip] bober100 Скачать
1 | 0
TNT serials [ 6.95 GB ] Территория / Сезон: 1 / Серии: 1-7 из 7 [2020 WEBRip 720p ] bober100 Скачать
5 | 0
TNT serials [ 4.1 GB ] Территория / Сезон: 1 / Серии: 1-7 из 7 [2020 WEBRip ] bober100 Скачать
5 | 0

28-11-2019 20:33  

Отключить всю рекламу на сайте

    Дорогой пользователь! Огромная просьба, поблагодарите релизера, оцените раздачу и оставьте свои комментарий, если Вы скачали Территория через торрент бесплатно! Внесите свою лепту в развитие PiratBit!
    Комментировать посты могут только пользователи прошедшие не сложную регистрацию
    Показать сообщения:    

    Территория через торрент
    Скачать бесплатно Территория
    Территория скачать торрент
    Территория смотреть онлайн
    Cкачать фильм Территория бесплатно
    Территория скачать торрент в хорошем качестве
    Территория смотреть онлайн бесплатно в хорошем качестве


    Вы не можете начинать темы
    Вы не можете отвечать на сообщения
    Вы не можете редактировать свои сообщения
    Вы не можете удалять свои сообщения
    Вы не можете голосовать в опросах
    Вы не можете прикреплять файлы к сообщениям
    Вы можете скачивать файлы