1 сезон

3 сезон

iTunes

1

iTunes

DUB Netflix

iTunes

13

1 сезон

RePack

30

Deluxe

pack

Легкие деньги

ВАЖНО

ИГРА 18+

pack

RePack

MK11

RePack

jed

RePack

fifa19

RePack

RDR2

RePack

NEED FOR SPEED™ PAYBACK

4 сезон

9 сезон

Бесстыжие 9 сезон

Все сериалы

все сериалы на PB.wtf

RePack

FAR CRY 5

Anonymous, доброй ночи, мы не успеваем до 1 числа собрать деньги на оплату серверов, помогите нам пожалуйста в это трудное время. В качестве благодарности мы отключим Вам всю рекламу на сайте (укажите свой ник в строку Ваше имя)!

×
  
Magnet ссылка

Зона комфорта / Сезон: 1 / Серии: 1-7 из 7 (Михаил Шулаев) [2020, Комедия, скринлайф, WEBRip] piratbit.org

Зона комфорта через торрент piratbit.org

Размер: 2.35 GB | Добавлен: 7 мес. назад | Торрент скачан:94 раза
Скачать  

22-10-2020 12:02 Зона комфорта Скачать торрент  

Зона комфорта
Год выпуска: 2020
Страна: Россия
Студия: Medium Quality Production
Жанр: Комедия, скринлайф
Продолжительность: ~ 00:27:00
Перевод: Не требуется
Субтитры: отсутствуют

Режиссер: Михаил Шулаев

В ролях: Екатерина Молоховская, Гарик Харламов, Степан Девонин, Ирина Серова, Евгений Сытый, Ульяна Чжан, Кай Алекс Гетц, Павел Алексеев (III), Екатерина Шкуро, Татьяна Лялина, Сергей Ланбамин, Евгений Сыркин, Жаргал Бадмацыренов, Амаду Мамадаков, Сергей Плаксин, Ирина Бякова, Егор Бакулин, Андрей Трушин

Описание: Ярослав Костров (Гарик Харламов) — хамоватый и изворотливый владелец небольшой транспортной компании в Мурманске, по стечению обстоятельств попадает в норвежскую тюрьму, где уровень комфорта напоминает хорошие гостиницы со всеми удобствами и интернетом. Но единственное, что теперь связывает героя с домом, — это окно «Скайпа», через которое ему придётся как-то выпутываться из сложившихся обстоятельств, противостоять мафии, контролировать свой бизнес, стараться не потерять жену и воспитывать детей, которые по «скайпу» воспитываться отказываются…

Качество: WEBRip
Формат: AVI

Видео: XviD, ~ 1600 Кбит/с, 720х400, 25 кадр/с
Аудио#1: 48.0 kHz, AC3 Dolby Digital, 2/0 (L,R) ch, ~ 192 kbps
скриншот  скриншот  скриншот  скриншот  скриншот  

General
Complete name : H:\fiiles x\Зона комфорта.2020.WEB-DLRip.Files-x\02. Зона комфорта.2020.WEB-DLRip.Files-x.avi
Format : AVI
Format/Info : Audio Video Interleave
File size : 338 MiB
Duration : 26mn 13s
Overall bit rate : 1 801 Kbps
Writing application : VirtualDubMod 1.5.10.3 | www.virtualdub-fr.org || (build 2550/release)
Writing library : VirtualDubMod build 2550/release

Video
ID : 0
Format : MPEG-4 Visual
Format profile : Advanced Simple@L5
Format settings, BVOP : 1
Format settings, QPel : No
Format settings, GMC : No warppoints
Format settings, Matrix : Custom
Codec ID : XVID
Codec ID/Hint : XviD
Duration : 26mn 13s
Bit rate : 1 600 Kbps
Width : 720 pixels
Height : 400 pixels
Display aspect ratio : 16:9
Frame rate : 25.000 fps
Color space : YUV
Chroma subsampling : 4:2:0
Bit depth : 8 bits
Scan type : Progressive
Compression mode : Lossy
Bits/(Pixel*Frame) : 0.222
Stream size : 300 MiB (89%)
Writing library : XviD 73

Audio
ID : 1
Format : AC-3
Format/Info : Audio Coding 3
Mode extension : CM (complete main)
Codec ID : 2000
Duration : 26mn 13s
Bit rate mode : Constant
Bit rate : 192 Kbps
Channel(s) : 2 channels
Channel positions : Front: L R
Sampling rate : 48.0 KHz
Bit depth : 16 bits
Compression mode : Lossy
Stream size : 36.0 MiB (11%)
Alignment : Split accross interleaves
Interleave, duration : 40 ms (1.00 video frame)
Interleave, preload duration : 500 ms

Когда раздача ведётся путём добавления новых серий, при каждом добавлении создётся новый торрент. Чтобы начать докачку новой серии, пользователям необходимо сделать следующее:
(1) остановить скачивание,
(2) удалить старый торрент у себя из клиента (старые серии удалять не надо),
(3) скачать новый торрент и запустить его у себя в клиенте вместо старого, при этом указать клиенту путь в старую папку, куда и должно происходить скачивание новых серий.
Ваш клиент при этом должен произвести хеширование (проверку) старой папки (если не производит сам - помогите ему сделать это), и будет докачивать только те серии, которых у вас ещё нет. Старые серии при этом не удаляются, а продолжают раздаваться!
Eсли вы уже удалили старые серии, то предотвратить повторную закачку старых серий можно, отжав галочку в соответсвующих местах при запуске нового торрента. По возможности, желательно не удалять старые серии как можно дольше, чтобы релизёр не столько продолжал раздавать старые серии, а смог сконцентрироваться на новых.

piratbit.org



Скачать Зона комфорта через торрент https://i114.fastpic.ru/big/2020/1022/36/96b57ff130be8c43a1cc296c4a052936.jpg Скачать фильм Зона комфорта через торрент бесплантно в хорошем качестве Описание: Ярослав Костров (Гарик Харламов) — хамоватый и изворотливый владелец небольшой транспортной компании в Мурманске, по стечению ... 10 10 12
Торрент: Зарегистрирован [2020-11-10 06:20] · скачан: 94 раз
Статус: √ проверено
Размер: 2.35 GB
Как cкачать? Как скачать Зона комфорта через торрент | UTorrent

% Раздел Тема Автор DL S | L
TNT serials [ 4.05 GB ] Зона комфорта / Сезон: 1 / Серии: 1-7 из 7 [2020 скринлайф WEBRip 720p] bober100 Скачать
1 | 0

28-11-2019 20:33  

Отключить всю рекламу на сайте

    Дорогой пользователь! Огромная просьба, поблагодарите релизера, оцените раздачу и оставьте свои комментарий, если Вы скачали Зона комфорта через торрент бесплатно! Внесите свою лепту в развитие PiratBit!
    Комментировать посты могут только пользователи прошедшие не сложную регистрацию
    Показать сообщения:    

    Зона комфорта через торрент
    Скачать бесплатно Зона комфорта
    Зона комфорта скачать торрент
    Зона комфорта смотреть онлайн
    Cкачать фильм Зона комфорта бесплатно
    Зона комфорта скачать торрент в хорошем качестве
    Зона комфорта смотреть онлайн бесплатно в хорошем качестве


    Вы не можете начинать темы
    Вы не можете отвечать на сообщения
    Вы не можете редактировать свои сообщения
    Вы не можете удалять свои сообщения
    Вы не можете голосовать в опросах
    Вы не можете прикреплять файлы к сообщениям
    Вы можете скачивать файлы