Ссылка на приватное зеркало нашего сайта всего за 1$. Внимание количество ограничено!!!

2 сезон

iTunes

1 сезон

1

2 сезон

2 сезон

iTunes

1 сезон

RePack

30

Новинка

ВАЖНО

ИГРА 18+

pack

RePack

MK11
pack

Забери бонус

RePack

jed

!!Акция!!

Alien_Rage

RePack

fifa19

RePack

Assassins Creed: Odyssey

RePack

NEED FOR SPEED™ PAYBACK

4 сезон

9 сезон

Бесстыжие 9 сезон

Все сериалы

все сериалы на PB.wtf

RePack

FAR CRY 5
  

Путешествие на Луну / Over the Moon (Глен Кин, Джон Карс) [2020, мультфильм, мюзикл, фантастика, фэнтези, комедия, приключения, семейный, WEB-DL 1080p] DUB [Невафильм / Netflix] piratbit.org

Путешествие на Луну через торрент piratbit.org

Раздают: 11 [ 231 KB/s ]
Размер: 4.74 GB | Добавлен: 1 мес. 13 д. назад | Торрент скачан:458 раз
Скачать  

23-10-2020 07:44 Путешествие на Луну Скачать торрент  

Путешествие на Луну | Over the Moon
Год выпуска: 2020
Страна: Китай, США
Выпущено: Glen Keane Productions, Janet Yang Productions, Pearl Studio, Sony Pictures Imageworks
Жанр: мультфильм, мюзикл, фантастика, фэнтези, комедия, приключения, семейный
Продолжительность: 01:40:00
Перевод: Дублированный | Невафильм по заказу Netflix
Субтитры: Русские (Forced, Full), английские (SDH), немецкие, испанские, французкие, итальянские, португальские, румынские

Режиссер: Глен Кин, Джон Карс

rating


В ролях: Кен Жонг, Сандра О, Кимико Гленн, Филлипа Су, Джон Чо, Бриттани Исибаси, Конрад Рикамора, Маргарет Чо, Ирэн Цу, Рути Энн Майлз

Описание: История о девочке, которая строит ракету, чтобы отправиться на Луну и доказать своему отцу, что легендарная богиня Луны существует.

Качество: WEB-DL 1080p
Формат: MKV

Видео: AVC, 1920x1080 (16:9), 24 fps, ~5620 kbps
Аудио#1: E-AC3, 48 kHz, 6 ch, 640 kbps
Аудио#2: E-AC3 ATMOS, 48 kHz, 6 ch, 768 kbps
скриншот  скриншот  скриншот  скриншот  

General
Unique ID : 48717541168618945337479625118901818289 (0x24A6A83A05CF901B53D6661576C353B1)
Complete name : Over.the.Moon.2020.1080p.NF.WEB-DL.DDP5.1.x264-EniaHD.mkv
Format : Matroska
Format version : Version 4
File size : 4.74 GiB
Duration : 1 h 40 min
Overall bit rate mode : Variable
Overall bit rate : 6 766 kb/s
Movie name : Over the Moon (2020) - EniaHD
Encoded date : UTC 2020-10-23 07:11:11
Writing application : mkvmerge v51.0.0 ('I Wish') 64-bit
Writing library : libebml v1.4.0 + libmatroska v1.6.2

Video
ID : 1
Format : AVC
Format/Info : Advanced Video Codec
Format profile : Main@L4
Format settings : CABAC / 3 Ref Frames
Format settings, CABAC : Yes
Format settings, Reference fra : 3 frames
Codec ID : V_MPEG4/ISO/AVC
Duration : 1 h 40 min
Bit rate mode : Variable
Bit rate : 5 620 kb/s
Maximum bit rate : 8 430 kb/s
Width : 1 920 pixels
Height : 1 080 pixels
Display aspect ratio : 16:9
Frame rate mode : Constant
Frame rate : 24.000 FPS
Color space : YUV
Chroma subsampling : 4:2:0
Bit depth : 8 bits
Scan type : Progressive
Bits/(Pixel*Frame) : 0.113
Stream size : 3.75 GiB (79%)
Writing library : x264 core 148 r2722 1b0121b
Encoding settings : cabac=1 / ref=3 / deblock=1:0:0 / analyse=0x1:0x111 / me=umh / subme=10 / psy=1 / psy_rd=1.00:0.00 / mixed_ref=1 / me_range=24 / chroma_me=1 / trellis=2 / 8x8dct=0 / cqm=0 / deadzone=21,11 / fast_pskip=1 / chroma_qp_offset=-2 / threads=6 / lookahead_threads=1 / sliced_threads=0 / nr=0 / decimate=1 / interlaced=0 / bluray_compat=0 / stitchable=1 / constrained_intra=0 / bframes=2 / b_pyramid=0 / b_adapt=2 / b_bias=0 / direct=3 / weightb=1 / open_gop=0 / weightp=2 / keyint=250 / keyint_min=24 / scenecut=0 / intra_refresh=0 / rc_lookahead=48 / rc=2pass / mbtree=1 / bitrate=5620 / ratetol=1.0 / qcomp=0.50 / qpmin=6 / qpmax=51 / qpstep=4 / cplxblur=20.0 / qblur=0.5 / vbv_maxrate=8430 / vbv_bufsize=11240 / nal_hrd=vbr / filler=0 / ip_ratio=1.40 / aq=1:1.00
Default : Yes
Forced : No

Audio #1
ID : 2
Format : E-AC-3
Format/Info : Enhanced AC-3
Commercial name : Dolby Digital Plus
Codec ID : A_EAC3
Duration : 1 h 40 min
Bit rate mode : Constant
Bit rate : 640 kb/s
Channel(s) : 6 channels
Channel layout : L R C LFE Ls Rs
Sampling rate : 48.0 kHz
Frame rate : 31.250 FPS (1536 SPF)
Compression mode : Lossy
Stream size : 459 MiB (9%)
Language : Russian
Service kind : Complete Main
Default : Yes
Forced : No

Audio #2
ID : 3
Format : E-AC-3 JOC
Format/Info : Enhanced AC-3 with Joint Object Coding
Commercial name : Dolby Digital Plus with Dolby Atmos
Codec ID : A_EAC3
Duration : 1 h 40 min
Bit rate mode : Constant
Bit rate : 768 kb/s
Channel(s) : 6 channels
Channel layout : L R C LFE Ls Rs
Sampling rate : 48.0 kHz
Frame rate : 31.250 FPS (1536 SPF)
Compression mode : Lossy
Stream size : 551 MiB (11%)
Language : English
Service kind : Complete Main
Default : No
Forced : No
Complexity index : 16
Number of dynamic objects : 15
Bed channel count : 1 channel
Bed channel configuration : LFE

Text #1
ID : 4
Format : UTF-8
Codec ID : S_TEXT/UTF8
Codec ID/Info : UTF-8 Plain Text
Duration : 1 h 34 min
Bit rate : 0 b/s
Count of elements : 4
Stream size : 171 Bytes (0%)
Title : Forced
Language : Russian
Default : Yes
Forced : No

Text #2
ID : 5
Format : UTF-8
Codec ID : S_TEXT/UTF8
Codec ID/Info : UTF-8 Plain Text
Duration : 1 h 34 min
Bit rate : 69 b/s
Count of elements : 1068
Stream size : 47.9 KiB (0%)
Language : Russian
Default : No
Forced : No

Text #3
ID : 6
Format : UTF-8
Codec ID : S_TEXT/UTF8
Codec ID/Info : UTF-8 Plain Text
Duration : 1 h 29 min
Bit rate : 67 b/s
Count of elements : 1352
Stream size : 44.1 KiB (0%)
Title : SDH
Language : English
Default : No
Forced : No

Text #4
ID : 7
Format : UTF-8
Codec ID : S_TEXT/UTF8
Codec ID/Info : UTF-8 Plain Text
Duration : 1 h 34 min
Bit rate : 46 b/s
Count of elements : 1034
Stream size : 32.3 KiB (0%)
Language : German
Default : No
Forced : No

Text #5
ID : 8
Format : UTF-8
Codec ID : S_TEXT/UTF8
Codec ID/Info : UTF-8 Plain Text
Duration : 1 h 25 min
Bit rate : 47 b/s
Count of elements : 1064
Stream size : 29.7 KiB (0%)
Language : Spanish
Default : No
Forced : No

Text #6
ID : 9
Format : UTF-8
Codec ID : S_TEXT/UTF8
Codec ID/Info : UTF-8 Plain Text
Duration : 1 h 34 min
Bit rate : 45 b/s
Count of elements : 983
Stream size : 31.4 KiB (0%)
Language : French
Default : No
Forced : No

Text #7
ID : 10
Format : UTF-8
Codec ID : S_TEXT/UTF8
Codec ID/Info : UTF-8 Plain Text
Duration : 1 h 34 min
Bit rate : 41 b/s
Count of elements : 1064
Stream size : 28.6 KiB (0%)
Language : Italian
Default : No
Forced : No

Text #8
ID : 11
Format : UTF-8
Codec ID : S_TEXT/UTF8
Codec ID/Info : UTF-8 Plain Text
Duration : 1 h 34 min
Bit rate : 42 b/s
Count of elements : 1056
Stream size : 29.4 KiB (0%)
Title : Brazilian
Language : Portuguese
Default : No
Forced : No

Text #9
ID : 12
Format : UTF-8
Codec ID : S_TEXT/UTF8
Codec ID/Info : UTF-8 Plain Text
Duration : 1 h 34 min
Bit rate : 43 b/s
Count of elements : 1023
Stream size : 30.4 KiB (0%)
Language : Romanian
Default : No
Forced : No

piratbit.org



Скачать Путешествие на Луну через торрент https://i6.imageban.ru/out/2020/10/23/f899a112cc69cd2ec2a2f4f5011d26f4.jpg Скачать фильм Путешествие на Луну через торрент бесплантно в хорошем качестве Описание: История о девочке, которая строит ракету, чтобы отправиться на Луну и доказать своему отцу, что легендарная богиня Луны ... 10 10 19
Торрент: Зарегистрирован [2020-10-23 07:44] · скачан: 458 раз
Статус: √ проверено
Размер: 4.74 GB
Как cкачать? Как скачать Путешествие на Луну через торрент | qTorrent

% Раздел Тема Автор DL S | L
Иностранные мультфильмы [ 1.46 GB ] Путешествие на Луну / Over the Moon [2020 мультфильм мюзикл WEB-DLRip] DUB [Невафильм / Netflix] bober100 Скачать
11 | 0

28-11-2019 20:33  

Отключить всю рекламу на сайте

    Дорогой пользователь! Огромная просьба, поблагодарите релизера, оцените раздачу и оставьте свои комментарий, если Вы скачали Путешествие на Луну через торрент бесплатно! Внесите свою лепту в развитие PiratBit!
    Комментировать посты могут только пользователи прошедшие не сложную регистрацию
    Показать сообщения:    

    Путешествие на Луну через торрент
    Скачать бесплатно Путешествие на Луну
    Путешествие на Луну скачать торрент
    Путешествие на Луну смотреть онлайн
    Cкачать фильм Путешествие на Луну бесплатно
    Путешествие на Луну скачать торрент в хорошем качестве
    Путешествие на Луну смотреть онлайн бесплатно в хорошем качестве


    Вы не можете начинать темы
    Вы не можете отвечать на сообщения
    Вы не можете редактировать свои сообщения
    Вы не можете удалять свои сообщения
    Вы не можете голосовать в опросах
    Вы не можете прикреплять файлы к сообщениям
    Вы можете скачивать файлы