2 сезон

iTunes

WEBRip

1

2 сезон

iTunes

1 сезон

1 сезон

RePack

30

Ultimate

ВАЖНО

ИГРА 18+

pack

RePack

MK11
pack

Легкие деньги

RePack

jed

RePack

fifa19

RePack

RDR2

RePack

NEED FOR SPEED™ PAYBACK

4 сезон

9 сезон

Бесстыжие 9 сезон

Все сериалы

все сериалы на PB.wtf

RePack

FAR CRY 5

Anonymous, доброй ночи, мы не успеваем собрать деньги на оплату серверов за февраль, помогите нам пожалуйста в это трудное время. В качестве благодарности мы отключим Вам всю рекламу на сайте (укажите свой ник в строку Ваше имя)!

×
  
Magnet ссылка

Борат 2 / Borat Subsequent Moviefilm / Borat: Gift of Pornographic Monkey to Viсе Premiere Mikhael Pence to Make Benefit Recently Diminished Nation of Kazakhstan (Джейсон Уолинер) [2020, комедия, WEBRip-AVC] [Ukr MVO] (студия Цікава ідея) piratbit.org

Борат 2 через торрент piratbit.org

Раздают: 2 [ 0 KB/s ]
Размер: 1.48 GB | Добавлен: 4 мес. 8 д. назад | Торрент скачан:45 раз
Скачать  

25-10-2020 13:27 Борат 2 Скачать торрент  

Борат 2 / Borat Subsequent Moviefilm
Год выхода: 2020
Страна: Великобритания, США
Жанр: комедия
Продолжительность: 01:36:04
Перевод: Украинский (профессиональный, многоголосный) студия *Цікава ідея*

Режиссер: Джейсон Уолинер / Jason Woliner

В ролях:
Саша Барон Коэн, Мария Бакалова, Николета Чобану, Рудольф В. Джулиани, Луэнелль, Майк Пенс

О фильме:
Продолжение комедии 2006 года, в центре которой реальные приключения вымышленного казахстанского тележурналиста по имени Борат.

rating

Качество: WEBRip-AVC
Формат: MKV
Видео: AVC, 720x400, 23.976 fps, ~1 100 kbps avg
Аудио Ukr: 48 kHz, AC3 Dolby Digital, 3/2 (L,C,R,l,r) + LFE ch, ~448 kbps avg
Аудио Eng: 48 kHz, E-AC3 Dolby Digital, 3/2 (L,C,R,l,r) + LFE ch, ~640 kbps avg

скриншот  скриншот  скриншот  
Format : Matroska
Format version : Version 4
File size : 1.48 GiB
Duration : 1 h 36 min
Overall bit rate : 2 202 kb/s
Movie name : Борат 2 / Borat Subsequent Moviefilm (2020) WEBRip-AVC [Ukr.Eng] [Цікава Ідея]
Encoded date : UTC 2020-10-24 22:33:45
Writing application : mkvmerge v50.0.0 ('Awakenings') 64-bit
Writing library : libebml v1.4.0 + libmatroska v1.6.2
Cover : Yes
Attachments : cover.png

Video
ID : 1
Format : AVC
Format/Info : Advanced Video Codec
Format profile : High@L3.1
Format settings : CABAC / 5 Ref Frames
Format settings, CABAC : Yes
Format settings, Reference frames : 5 frames
Codec ID : V_MPEG4/ISO/AVC
Duration : 1 h 36 min
Bit rate : 1 100 kb/s
Width : 720 pixels
Height : 400 pixels
Display aspect ratio : 16:9
Frame rate mode : Constant
Frame rate : 23.976 (24000/1001) FPS
Color space : YUV
Chroma subsampling : 4:2:0
Bit depth : 8 bits
Scan type : Progressive
Bits/(Pixel*Frame) : 0.159
Stream size : 756 MiB (50%)
Writing library : x264 core 152 r2851M ba24899
Encoding settings : cabac=1 / ref=5 / deblock=1:-1:-1 / analyse=0x3:0x113 / me=umh / subme=9 / psy=1 / psy_rd=1.00:0.15 / mixed_ref=1 / me_range=16 / chroma_me=1 / trellis=2 / 8x8dct=1 / cqm=0 / deadzone=21,11 / fast_pskip=1 / chroma_qp_offset=-3 / threads=16 / lookahead_threads=1 / sliced_threads=0 / nr=0 / decimate=1 / interlaced=0 / bluray_compat=0 / constrained_intra=0 / bframes=3 / b_pyramid=2 / b_adapt=2 / b_bias=0 / direct=3 / weightb=1 / open_gop=0 / weightp=2 / keyint=250 / keyint_min=23 / scenecut=40 / intra_refresh=0 / rc_lookahead=50 / rc=2pass / mbtree=1 / bitrate=1100 / ratetol=1.0 / qcomp=0.60 / qpmin=0 / qpmax=69 / qpstep=4 / cplxblur=20.0 / qblur=0.5 / ip_ratio=1.40 / aq=1:1.00
Default : Yes
Forced : No

Audio #1
ID : 2
Format : AC-3
Format/Info : Audio Coding 3
Commercial name : Dolby Digital
Codec ID : A_AC3
Duration : 1 h 36 min
Bit rate mode : Constant
Bit rate : 448 kb/s
Channel(s) : 6 channels
Channel layout : L R C LFE Ls Rs
Sampling rate : 48.0 kHz
Frame rate : 31.250 FPS (1536 SPF)
Compression mode : Lossy
Stream size : 308 MiB (20%)
Title : Цікава Ідея
Language : Ukrainian
Service kind : Complete Main
Default : Yes
Forced : No

Audio #2
ID : 3
Format : E-AC-3
Format/Info : Enhanced AC-3
Commercial name : Dolby Digital Plus
Codec ID : A_EAC3
Duration : 1 h 36 min
Bit rate mode : Constant
Bit rate : 640 kb/s
Channel(s) : 6 channels
Channel layout : L R C LFE Ls Rs
Sampling rate : 48.0 kHz
Frame rate : 31.250 FPS (1536 SPF)
Compression mode : Lossy
Stream size : 440 MiB (29%)
Title : Original
Language : English
Service kind : Complete Main
Default : No
Forced : No

piratbit.org



Скачать Борат 2 через торрент https://c.radikal.ru/c08/2010/48/55df23e19e3a.jpg Скачать фильм Борат 2 через торрент бесплантно в хорошем качестве О фильме:Продолжение комедии 2006 года, в центре которой реальные приключения вымышленного казахстанского тележурналиста по имени Борат. ... 10 10 2
Торрент: Зарегистрирован [2020-10-25 13:27] · скачан: 45 раз
Статус: √ проверено
Размер: 1.48 GB
Как cкачать? Как скачать Борат 2 через торрент | UTorrent

28-11-2019 20:33  

Отключить всю рекламу на сайте

    Дорогой пользователь! Огромная просьба, поблагодарите релизера, оцените раздачу и оставьте свои комментарий, если Вы скачали Борат 2 через торрент бесплатно! Внесите свою лепту в развитие PiratBit!
    Комментировать посты могут только пользователи прошедшие не сложную регистрацию
    Показать сообщения:    

    Борат 2 через торрент
    Скачать бесплатно Борат 2
    Борат 2 скачать торрент
    Борат 2 смотреть онлайн
    Cкачать фильм Борат 2 бесплатно
    Борат 2 скачать торрент в хорошем качестве
    Борат 2 смотреть онлайн бесплатно в хорошем качестве


    Вы не можете начинать темы
    Вы не можете отвечать на сообщения
    Вы не можете редактировать свои сообщения
    Вы не можете удалять свои сообщения
    Вы не можете голосовать в опросах
    Вы не можете прикреплять файлы к сообщениям
    Вы можете скачивать файлы