1 сезон

3 сезон

iTunes

1

iTunes

DUB Netflix

iTunes

13

1 сезон

RePack

30

Deluxe

pack

Легкие деньги

ВАЖНО

ИГРА 18+

pack

RePack

MK11

RePack

jed

RePack

fifa19

RePack

RDR2

RePack

NEED FOR SPEED™ PAYBACK

4 сезон

9 сезон

Бесстыжие 9 сезон

Все сериалы

все сериалы на PB.wtf

RePack

FAR CRY 5

Anonymous, добрый день, мы не успеваем до 1 числа собрать деньги на оплату серверов, помогите нам пожалуйста в это трудное время. В качестве благодарности мы отключим Вам всю рекламу на сайте (укажите свой ник в строку Ваше имя)!

×
  
Magnet ссылка

Гусар / Сезон: 1 / Серии: 1-18 из 18 (Заур Болотаев, Рустам Мосафир) [2020, Комедия, приключения, WEBRip-AVC] piratbit.org

Гусар через торрент piratbit.org

Раздают: 4 [ 169 KB/s ] Качают: 2 [ 0 KB/s ]
Размер: 5.26 GB | Добавлен: 7 мес. назад | Торрент скачан:569 раз
Скачать  

30-10-2020 03:52 Гусар Скачать торрент  

Гусар
Год выпуска: 2020
Страна: Россия
Выпущено: Comedy Club Production по заказу телеканала ТНТ
Жанр: Комедия, приключения
Продолжительность: ~ 00:25:00 серия
Перевод: Не требуется
Субтитры: отсутствуют

Режиссер: Заур Болотаев, Рустам Мосафир



В ролях: Гарик Харламов, Павел Рассомахин, Екатерина Ковальчук, Екатерина Радченко, Сергей Белов, Валерия Кристиансен, Светлана Фролова

Описание: 1812 год. Поручик Григорий Рыльский должен доставить Кутузову секретные документы. Как только они попадут к полководцу, русская армия начнет наступление. Но по пути в штаб поручик заглядывается на сельскую девицу и вдруг… оказывается в будущем – в квартире молодого ученого Дмитрия Журавлева и его жены Кати, которые находятся на грани развода. При попытке вернуть Гусара обратно в прошлое, машина времени ломается, и поручик вынужден оставаться в 21 веке, пока ученый не починит машину.

Качество: WEBRip-AVC
Формат: MKV

Видео: MPEG-4 AVC, ~ 1600 Кбит/с, 1024x576, 25 кадр/с
Аудио: 48.0 kHz, AC3 Dolby Digital, 2/0 (L,R) ch, ~ 192 kbps
скриншот  скриншот  скриншот  скриншот  скриншот  

General
Unique ID : 233371030034920864574932854031432893625 (0xAF91A0201760DC398E166100291144B9)
Complete name : F:\Гусар.(2020).WEBRip.(AVC).Files-x\01.Gusar.(2020).WEBRip.(AVC).by.Серый1779.Files-x.mkv
Format : Matroska
Format version : Version 2
File size : 290 MiB
Duration : 22 min 38 s
Overall bit rate : 1 793 kb/s
Encoded date : UTC 2020-10-05 18:15:45
Writing application : mkvmerge v7.8.0 ('River Man') 32bit built on Apr 3 2015 12:11:22
Writing library : libebml v1.3.1 + libmatroska v1.4.2

Video
ID : 1
Format : AVC
Format/Info : Advanced Video Codec
Format profile : High@L4.1
Format settings : CABAC / 9 Ref Frames
Format settings, CABAC : Yes
Format settings, RefFrames : 9 frames
Codec ID : V_MPEG4/ISO/AVC
Duration : 22 min 38 s
Bit rate : 1 600 kb/s
Width : 1 024 pixels
Height : 576 pixels
Display aspect ratio : 16:9
Frame rate mode : Constant
Frame rate : 25.000 FPS
Color space : YUV
Chroma subsampling : 4:2:0
Bit depth : 8 bits
Scan type : Progressive
Bits/(Pixel*Frame) : 0.109
Stream size : 253 MiB (87%)
Writing library : x264 core 146 r2538 121396c
Encoding settings : cabac=1 / ref=9 / deblock=1:-2:-1 / analyse=0x3:0x133 / me=umh / subme=9 / psy=1 / psy_rd=1.00:0.15 / mixed_ref=1 / me_range=32 / chroma_me=1 / trellis=2 / 8x8dct=1 / cqm=0 / deadzone=21,11 / fast_pskip=0 / chroma_qp_offset=-3 / threads=18 / lookahead_threads=3 / sliced_threads=0 / nr=0 / decimate=1 / interlaced=0 / bluray_compat=0 / constrained_intra=0 / bframes=9 / b_pyramid=2 / b_adapt=2 / b_bias=0 / direct=1 / weightb=1 / open_gop=0 / weightp=2 / keyint=250 / keyint_min=25 / scenecut=40 / intra_refresh=0 / rc=2pass / mbtree=0 / bitrate=1600 / ratetol=1.0 / qcomp=0.60 / qpmin=0 / qpmax=69 / qpstep=4 / cplxblur=20.0 / qblur=0.5 / ip_ratio=1.40 / pb_ratio=1.30 / aq=2:1.00
Default : Yes
Forced : No
Color range : Limited
Color primaries : BT.709
Transfer characteristics : BT.709
Matrix coefficients : BT.709

Audio
ID : 2
Format : AC-3
Format/Info : Audio Coding 3
Format settings, Endianness : Big
Codec ID : A_AC3
Duration : 22 min 38 s
Bit rate mode : Constant
Bit rate : 192 kb/s
Channel(s) : 2 channels
Channel positions : Front: L R
Sampling rate : 48.0 kHz
Frame rate : 31.250 FPS (1536 SPF)
Bit depth : 16 bits
Compression mode : Lossy
Stream size : 31.1 MiB (11%)
Service kind : Complete Main
Default : Yes
Forced : No

piratbit.org



Скачать Гусар через торрент http://d.radikal.ru/d40/2010/63/1298c206b729.jpg Скачать фильм Гусар через торрент бесплантно в хорошем качестве Описание: 1812 год. Поручик Григорий Рыльский должен доставить Кутузову секретные документы. Как только они попадут к полководцу, русская ... 9.3 10 12
Info! Золотая раздача, скачанное не засчитывается.
Торрент: Зарегистрирован [2020-10-30 03:52] · скачан: 569 раз
Статус: √ проверено
Размер: 5.26 GB
Как cкачать? Как скачать Гусар через торрент | UTorrent

% Раздел Тема Автор DL S | L
TNT serials [ 17.09 GB ] Гусар / Сезон: 1 / Серии: 1-18 из 18 [2020 HDTV 1080i] bober100 Скачать
2 | 0
TNT serials [ 5.31 GB ] Гусар / Сезон: 1 / Серии: 1-18 из 18 [2020 SATRip] bober100 Скачать
1 | 0
TNT serials [ 13.32 GB ] Гусар / Сезон: 1 / Серии: 1-18 из 18 [2020 WEBRip 1080p] bober100 Скачать
3 | 0
TNT serials [ 5.28 GB ] Гусар / Сезон: 1 / Серии: 1-18 из 18 [2020 WEBRip] bober100 Скачать
1 | 0
TNT serials [ 9.06 GB ] Гусар / Сезон: 1 / Серии: 1-18 из 18 [2020 WEBRip 720p] bober100 Скачать
1 | 0

28-11-2019 20:33  

Отключить всю рекламу на сайте

    Дорогой пользователь! Огромная просьба, поблагодарите релизера, оцените раздачу и оставьте свои комментарий, если Вы скачали Гусар через торрент бесплатно! Внесите свою лепту в развитие PiratBit!
    Комментировать посты могут только пользователи прошедшие не сложную регистрацию
    Показать сообщения:    

    Гусар через торрент
    Скачать бесплатно Гусар
    Гусар скачать торрент
    Гусар смотреть онлайн
    Cкачать фильм Гусар бесплатно
    Гусар скачать торрент в хорошем качестве
    Гусар смотреть онлайн бесплатно в хорошем качестве


    Вы не можете начинать темы
    Вы не можете отвечать на сообщения
    Вы не можете редактировать свои сообщения
    Вы не можете удалять свои сообщения
    Вы не можете голосовать в опросах
    Вы не можете прикреплять файлы к сообщениям
    Вы можете скачивать файлы