Ссылка на приватное зеркало нашего сайта всего за 1$. Внимание количество ограничено!!!

2 сезон

iTunes

1 сезон

1

2 сезон

2 сезон

iTunes

1 сезон

RePack

30

Ultimate

ВАЖНО

ИГРА 18+

pack

RePack

MK11
pack

Забери бонус

RePack

jed

!!Акция!!

Alien_Rage

RePack

fifa19

RePack

Assassins Creed: Odyssey

RePack

NEED FOR SPEED™ PAYBACK

4 сезон

9 сезон

Бесстыжие 9 сезон

Все сериалы

все сериалы на PB.wtf

RePack

FAR CRY 5
  

Мандалорец / The Mandalorian / Сезон: 2 / Серия: 1-6 из 8 (Дэйв Филони, Дебора Чоу, Рик Фамуйива) [2020, Фантастика, боевик, приключения, WEB-DL 1080p] [MVO] (AlexFilm) piratbit.org

Мандалорец через торрент piratbit.org

Раздают: 2 [ 14 MB/s ] Качают: 21 [ 1 MB/s ]
Размер: 24.87 GB | Добавлен: 2 ч. назад | Торрент скачан:0 раз
Скачать  

31-10-2020 06:24 Мандалорец Скачать торрент  

Мандалорец | The Mandalorian
Год выпуска: 2020
Страна: США
Жанр: Фантастика, боевик, приключения
Продолжительность: ~ 00:50:00
Перевод: Профессиональный (многоголосый закадровый) | AlexFilm
Режиссёр: Дэйв Филони, Дебора Чоу, Рик Фамуйива

В ролях: Педро Паскаль, Кайл Пацек, Брендан Уэйн, Бернард Баллен, Александра Гилман, Луис Ричард Гомес, Джамал Антар, Тейт Флетчер, Тони Табоада, Омид Абтахи и др.
Описание: Одинокий мандалорец-наёмник живёт на краю обитаемой галактики, куда не дотягивается закон Новой Республики. Представитель некогда могучей расы благородных воинов теперь вынужден влачить жалкое существование среди отбросов общества.

rating
Качество: WEB-DL 1080p
Формат: MKV
Видео: AVC, 1920x1080 (16:9), 23.976 fps, ~8500 Kbps
Аудио №1: AC3, 48,0 kHz, 6 ch, 384 kbps | AlexFilm
Аудио №2: AC3, 48,0 kHz, 6 ch, 640 kbps | Original
Аудио №3: EAC3 JOC, 48,0 kHz, 6 ch, 768 kbps | Original
Субтитры: Русские (Forced, Full |«PhysKids»|, английские (SDH)

Реклама: Отсутствует
Исходник: The.Mandalorian.S02.1080p.DSNP.WEB-DL.DDP5.1.Atmos.x265-PHOENiX
При каждом добавлении создаётся новый торрент. Чтобы начать докачку новой серии, пользователям необходимо сделать следующее:
- остановить скачивание;
- удалить старый торрент у себя из клиента (старые серии удалять не надо);
- скачать новый торрент и запустить его у себя в клиенте вместо старого, при этом указать клиенту путь в старую папку, куда и должно происходить скачивание новых серий.
Complete name : D:\Shows\The_Mandalorian_(s02)_1080p\The.Mandalorian.2020.S02E01.Chapter.9.The.Marshal.1080p.DSNP.WEB-DL.DDP5.1.Atmos.x264-PHOENiX_EniaHD.mkv
Format : Matroska
Format version : Version 4
File size : 3.72 GiB
Duration : 51 min 48 s
Overall bit rate mode : Variable
Overall bit rate : 10.3 Mb/s
Encoded date : UTC 2020-10-30 23:17:25
Writing application : mkvmerge v31.0.0 ('Dolores In A Shoestand') 64-bit
Writing library : libebml v1.3.6 + libmatroska v1.4.9
Anyway : enjoy your star trek kids
Greetz to : BHD staff for being amazing uwu
Hi : pls let me (impragma) back on BTN, I miss it :'(

Video
ID : 1
Format : AVC
Format/Info : Advanced Video Codec
Format profile : High@L4
Format settings : CABAC / 4 Ref Frames
Format settings, CABAC : Yes
Format settings, Reference : 4 frames
Codec ID : V_MPEG4/ISO/AVC
Duration : 51 min 48 s
Bit rate mode : Variable
Bit rate : 8 489 kb/s
Maximum bit rate : 12.7 Mb/s
Width : 1 920 pixels
Height : 1 080 pixels
Display aspect ratio : 16:9
Frame rate mode : Constant
Frame rate : 23.976 (24000/1001) FPS
Color space : YUV
Chroma subsampling : 4:2:0
Bit depth : 8 bits
Scan type : Progressive
Bits/(Pixel*Frame) : 0.171
Stream size : 3.07 GiB (83%)
Title : Release by EniaHD
Language : English
Default : Yes
Forced : No
Color range : Limited
Color primaries : BT.709
Transfer characteristics : BT.709
Matrix coefficients : BT.709

Audio #1
ID : 2
Format : AC-3
Format/Info : Audio Coding 3
Commercial name : Dolby Digital
Codec ID : A_AC3
Duration : 51 min 48 s
Bit rate mode : Constant
Bit rate : 384 kb/s
Channel(s) : 6 channels
Channel layout : L R C LFE Ls Rs
Sampling rate : 48.0 kHz
Frame rate : 31.250 FPS (1536 SPF)
Compression mode : Lossy
Stream size : 142 MiB (4%)
Title : AlexFilm
Language : Russian
Service kind : Complete Main
Default : Yes
Forced : No

Audio #2
ID : 3
Format : AC-3
Format/Info : Audio Coding 3
Commercial name : Dolby Digital
Codec ID : A_AC3
Duration : 51 min 48 s
Bit rate mode : Constant
Bit rate : 640 kb/s
Channel(s) : 6 channels
Channel layout : L R C LFE Ls Rs
Sampling rate : 48.0 kHz
Frame rate : 31.250 FPS (1536 SPF)
Compression mode : Lossy
Stream size : 237 MiB (6%)
Language : English
Service kind : Complete Main
Default : No
Forced : No

Audio #3
ID : 4
Format : E-AC-3 JOC
Format/Info : Enhanced AC-3 with Joint Object Coding
Commercial name : Dolby Digital Plus with Dolby Atmos
Codec ID : A_EAC3
Duration : 51 min 48 s
Bit rate mode : Constant
Bit rate : 768 kb/s
Channel(s) : 6 channels
Channel layout : L R C LFE Ls Rs
Sampling rate : 48.0 kHz
Frame rate : 31.250 FPS (1536 SPF)
Compression mode : Lossy
Stream size : 285 MiB (7%)
Language : English
Service kind : Complete Main
Default : No
Forced : No
Complexity index : 16
Number of dynamic objects : 15
Bed channel count : 1 channel
Bed channel configuration : LFE

Text #1
ID : 5
Format : UTF-8
Codec ID : S_TEXT/UTF8
Codec ID/Info : UTF-8 Plain Text
Duration : 4 s 600 ms
Bit rate : 46 b/s
Count of elements : 1
Stream size : 27.0 Bytes (0%)
Title : Forced |AF|
Language : Russian
Default : Yes
Forced : No

Text #2
ID : 6
Format : UTF-8
Codec ID : S_TEXT/UTF8
Codec ID/Info : UTF-8 Plain Text
Duration : 48 min 19 s
Bit rate : 51 b/s
Count of elements : 346
Stream size : 18.3 KiB (0%)
Title : Full |PhysKids|
Language : Russian
Default : No
Forced : No

Text #3
ID : 7
Format : UTF-8
Codec ID : S_TEXT/UTF8
Codec ID/Info : UTF-8 Plain Text
Duration : 48 min 25 s
Bit rate : 43 b/s
Count of elements : 481
Stream size : 15.4 KiB (0%)
Title : SDH
Language : English
Default : No
Forced : No
скриншот  скриншот  скриншот  
piratbit.org



Скачать Мандалорец через торрент https://c.radikal.ru/c37/2010/00/74ef520f47ff.png Скачать фильм Мандалорец через торрент бесплантно в хорошем качестве Описание: Одинокий мандалорец-наёмник живёт на краю обитаемой галактики, куда не дотягивается закон Новой Республики. Представитель некогда ... 9.5 10 22
Торрент: Зарегистрирован [2020-12-05 03:46] · скачан: 0 раз
Статус: не проверено
Размер: 24.87 GB
Как cкачать? Как скачать Мандалорец через торрент | qTorrent

% Раздел Тема Автор DL S | L
* Зарубежные сериалы [ 3.99 GB ] Мандалорец / The Mandalorian / Сезон: 2 / Серии 1-6 из 8 [2020 WEB-DLRip-AVC] MVO [AlexFilm] GEKADOL Скачать
5 | 7
T Зарубежные сериалы [ 8.22 GB ] Мандалорец / The Mandalorian / Сезон: 2 / Серии: 1-6 из 8 [2020 WEBRip 1080p] [DVO] killermax2013 Скачать
3 | 14
T Зарубежные сериалы [ 2.37 GB ] Мандалорец / The Mandalorian / Сезон: 2 / Серии: 1-6 из 8 [2020 WEBRip] [MVO] killermax2013 Скачать
5 | 22
Фильмы без перевода [ 17.84 GB ] Мандалорец / The Mandalorian / Сезон: 2 / Серии: 1-6 из 8 [2020 WEB-DL 1080p] 2x[Sub] killermax2013 Скачать
3 | 16

28-11-2019 20:33  

Отключить всю рекламу на сайте

21-11-2020 18:19 Мандалорец Скачать торрент  

а в каком переводе не нормативная лексика?piratbit.org
Kkillermax2013 писал(а):

ни в каком



28-11-2020 02:00 Мандалорец Скачать торрент  

neonix2k писал(а):

а в каком переводе не нормативная лексика?

Какая же там не нормативная лексика на канале Disney+?piratbit.org



28-11-2020 10:42 Мандалорец Скачать торрент  

вот и у меня вопрос зачем стоит "внимание не нормативная лексика"piratbit.org
Kkillermax2013 писал(а):

ну значит они там матерятся на мандалорском ))



29-11-2020 20:34 Мандалорец Скачать торрент  

Блин, а зачем на роль Осоки Тано такую некрасивую девочку нашли. Осока симпатичная должна быть, а тут прям пенсионерка со стажем!piratbit.org



    Дорогой пользователь! Огромная просьба, поблагодарите релизера, оцените раздачу и оставьте свои комментарий, если Вы скачали Мандалорец через торрент бесплатно! Внесите свою лепту в развитие PiratBit!
    Комментировать посты могут только пользователи прошедшие не сложную регистрацию
    Показать сообщения:    

    Мандалорец через торрент
    Скачать бесплатно Мандалорец
    Мандалорец скачать торрент
    Мандалорец смотреть онлайн
    Cкачать фильм Мандалорец бесплатно
    Мандалорец скачать торрент в хорошем качестве
    Мандалорец смотреть онлайн бесплатно в хорошем качестве


    Вы не можете начинать темы
    Вы не можете отвечать на сообщения
    Вы не можете редактировать свои сообщения
    Вы не можете удалять свои сообщения
    Вы не можете голосовать в опросах
    Вы не можете прикреплять файлы к сообщениям
    Вы можете скачивать файлы