Достать ножи: Стеклянная луковица

MVO

Добыча

Дубляж

Уэнсдэй

1 сезон

Тор

Дубляж

13 клиническая

1 сезон

Жестокая ночь

MVO

Одни из нас

1 сезон

Deluxe

pack

Рекомендуем

30

Пиратка

ВАЖНО

ВАЖНО

Ghostwire

Пиратка

jed

RePack

nioh2

RePack

RDR2

RePack

NEED FOR SPEED™ PAYBACK

RePack

скачать торрент

Кинопоиск HD

Острые козырьки 6 сезон

6 сезон

FAR CRY 6

RePack

скачать торрент

Лицензия

скачать торрент

MVO

1

1 сезон

скачать торрент

1 сезон

скачать торрент

Лицензия

  

«V» значит Вендетта / V for Vendetta (Джеймс МакТиг) [2005, Фантастика, боевик, триллер, UHD BDRemux 2160p] Дубляж [Лицензия] +DVO+2xAVO

«V» значит Вендетта через торрент piratbit.org

Размер: 68.82 GB | Добавлен: 2 года 3 мес. назад | Торрент скачан:71 раз
Смотреть онлайн | Скачать | Поддержите нас   

01-11-2020 11:52 «V» значит Вендетта Скачать торрент  

«V» значит Вендетта | V for Vendetta
Год выпуска: 2005
Страна: Германия, США, Великобритания
Студия: Warner Bros., Virtual Studios, Silver Pictures
Жанр: Фантастика, боевик, триллер
Продолжительность: 02:12:33
Перевод(ы):
#1: Дублированный | Лицензия
#2: Профессиональный двухголосый | Tycoon
#3: Авторский | Немахов
#4: Авторский | Гаврилов
Субтитры: Русские (full), английские

Режиссер: Джеймс МакТиг

rating

В ролях: Натали Портман, Хьюго Уивинг, Стивен Ри, Стивен Фрай, Джон Хёрт, Тим Пиготт-Смит, Руперт Грейвз, Роджер Аллам, Бен Майлз, Шинейд Кьюсак, Наташа Уайтман, Джон Стэндинг, Эдди Марсан, Клайв Эшборн, Эмма Филд-Рэйнер, Иэн Барфилд, Марк Феникс, Алистер Мадзотти, Билли Кук, Гай Генри, Косима Шоу, Меган Гэй, Родрик Калвер, Тара Хэкинг, Энди Рашлай, Чад Стахелски, Антье Рау, Амельда Браун, Ричард Кэмпбелл, Патриция Гэннон, Марк Лонгхерст

Описание: Альтернативное будущее. Германия выигрывает Вторую мировую войну, Британия становится одной из провинций Третьего рейха. На ее территории живет и действует террорист, борец за свободу, известный только как «V». Он начинает жестокую партизанскую войну с режимом. В этой войне он привлекает на свою сторону молодую женщину Иви, которую он вырвал из лап тайной полиции. Чем больше Иви узнает правды о «V», тем больше она узнает и о себе, тем сильнее меняется ее жизнь...

Качество: UHD BDRemux 2160p
Формат: MKV

Видео: 3840x2160 at 23.976 fps, MPEG-H HEVC HDR Video, 65600 kbps avg
Аудио #01: 48 kHz, AC3, 5.1, 640 Kbps | Лицензия | RUS |
Аудио #02: 48 kHz, DTS-HD MA, 5.1, 1956 Kbps | Tycoon | RUS |
Аудио #03: 48 kHz, DTS-HD MA, 5.1, 1957 Kbps | Немахов | RUS |
Аудио #04: 48 kHz, AC3, 5.1, 448 Kbps | Гаврилов | RUS |
Аудио #05: 48 kHz, TrueHD, 7.1, 3164 Kbps | Оригинал | ENG |
Аудио #06: 48 kHz, AC3, 5.1, 448 Kbps | Оригинал | ENG |
скриншот  скриншот  скриншот  скриншот  скриншот  

General
Unique ID : 161006689216630854770747342772689006002 (0x7920C2A9A213AA7F35B255AD261D6DB2)
Complete name : D:Video111V.for.Vendetta.2005.BDREMUX.2160p.HDR.seleZen.mkv
Format : Matroska
Format version : Version 4
File size : 68.8 GiB
Duration : 2 h 12 min
Overall bit rate mode : Variable
Overall bit rate : 74.3 Mb/s
Movie name : V for Vendetta 2005 UHD 4K from seleZen
Encoded date : UTC 2020-11-01 11:21:47
Writing application : mkvmerge v40.0.0 ('Old Town Road + Pony') 64-bit
Writing library : libebml v1.3.9 + libmatroska v1.5.2

Video
ID : 1
Format : HEVC
Format/Info : High Efficiency Video Coding
Format profile : Main 10@L5.1@High
HDR format : SMPTE ST 2086, HDR10 compatible
Codec ID : V_MPEGH/ISO/HEVC
Duration : 2 h 12 min
Bit rate : 65.6 Mb/s
Width : 3 840 pixels
Height : 2 160 pixels
Display aspect ratio : 16:9
Frame rate mode : Constant
Frame rate : 23.976 (24000/1001) FPS
Color space : YUV
Chroma subsampling : 4:2:0 (Type 2)
Bit depth : 10 bits
Bits/(Pixel*Frame) : 0.330
Stream size : 60.8 GiB (88%)
Writing library : ATEME Titan File 3.9.6 (4.9.6.2)
Language : English
Default : Yes
Forced : No
Color range : Limited
Color primaries : BT.2020
Transfer characteristics : PQ
Matrix coefficients : BT.2020 non-constant
Mastering display color pri : Display P3
Mastering display luminance : min: 0.0050 cd/m2, max: 4000 cd/m2
Maximum Content Light Level : 2491 cd/m2
Maximum Frame-Average Light : 130 cd/m2

Audio #1
ID : 2
Format : AC-3
Format/Info : Audio Coding 3
Commercial name : Dolby Digital
Codec ID : A_AC3
Duration : 2 h 12 min
Bit rate mode : Constant
Bit rate : 640 kb/s
Channel(s) : 6 channels
Channel layout : L R C LFE Ls Rs
Sampling rate : 48.0 kHz
Frame rate : 31.250 FPS (1536 SPF)
Compression mode : Lossy
Stream size : 607 MiB (1%)
Title : Дубляж [License]
Language : Russian
Service kind : Complete Main
Default : Yes
Forced : Yes

Audio #2
ID : 3
Format : DTS XLL
Format/Info : Digital Theater Systems
Commercial name : DTS-HD Master Audio
Codec ID : A_DTS
Duration : 2 h 12 min
Bit rate mode : Variable
Bit rate : 1 956 kb/s
Channel(s) : 6 channels
Channel layout : C L R Ls Rs LFE
Sampling rate : 48.0 kHz
Frame rate : 93.750 FPS (512 SPF)
Bit depth : 16 bits
Compression mode : Lossless
Stream size : 1.81 GiB (3%)
Title : DVO [Tycoon]
Language : Russian
Default : No
Forced : No

Audio #3
ID : 4
Format : DTS XLL
Format/Info : Digital Theater Systems
Commercial name : DTS-HD Master Audio
Codec ID : A_DTS
Duration : 2 h 12 min
Bit rate mode : Variable
Bit rate : 1 957 kb/s
Channel(s) : 6 channels
Channel layout : C L R Ls Rs LFE
Sampling rate : 48.0 kHz
Frame rate : 93.750 FPS (512 SPF)
Bit depth : 16 bits
Compression mode : Lossless
Stream size : 1.81 GiB (3%)
Title : AVO [Nemahov]
Language : Russian
Default : No
Forced : No

Audio #4
ID : 5
Format : AC-3
Format/Info : Audio Coding 3
Commercial name : Dolby Digital
Codec ID : A_AC3
Duration : 2 h 12 min
Bit rate mode : Constant
Bit rate : 448 kb/s
Channel(s) : 6 channels
Channel layout : L R C LFE Ls Rs
Sampling rate : 48.0 kHz
Frame rate : 31.250 FPS (1536 SPF)
Compression mode : Lossy
Stream size : 425 MiB (1%)
Title : AVO [Gavrilov]
Language : Russian
Service kind : Complete Main
Default : No
Forced : No

Audio #5
ID : 6
Format : MLP FBA 16-ch
Format/Info : Meridian Lossless Packing FBA with 16-channel presentation
Commercial name : Dolby TrueHD with Dolby Atmos
Codec ID : A_TRUEHD
Duration : 2 h 12 min
Bit rate mode : Variable
Bit rate : 3 164 kb/s
Maximum bit rate : 6 012 kb/s
Channel(s) : 8 channels
Channel layout : L R C LFE Ls Rs Lb Rb
Sampling rate : 48.0 kHz
Frame rate : 1 200.000 FPS (40 SPF)
Compression mode : Lossless
Stream size : 2.93 GiB (4%)
Title : Original
Language : English
Default : No
Forced : No
Number of dynamic objects : 11
Bed channel count : 1 channel
Bed channel configuration : LFE

Audio #6
ID : 7
Format : AC-3
Format/Info : Audio Coding 3
Commercial name : Dolby Digital
Codec ID : A_AC3
Duration : 2 h 12 min
Bit rate mode : Constant
Bit rate : 448 kb/s
Channel(s) : 6 channels
Channel layout : L R C LFE Ls Rs
Sampling rate : 48.0 kHz
Frame rate : 31.250 FPS (1536 SPF)
Compression mode : Lossy
Stream size : 425 MiB (1%)
Language : English
Service kind : Complete Main
Default : No
Forced : No

Text #1
ID : 8
Format : UTF-8
Codec ID : S_TEXT/UTF8
Codec ID/Info : UTF-8 Plain Text
Duration : 2 h 11 min
Bit rate : 115 b/s
Count of elements : 1721
Stream size : 112 KiB (0%)
Title : Full
Language : Russian
Default : No
Forced : No

Text #2
ID : 9
Format : UTF-8
Codec ID : S_TEXT/UTF8
Codec ID/Info : UTF-8 Plain Text
Duration : 2 h 3 min
Bit rate : 78 b/s
Count of elements : 1707
Stream size : 71.0 KiB (0%)
Title : Full
Language : English
Default : No
Forced : No

Text #3
ID : 10
Format : UTF-8
Codec ID : S_TEXT/UTF8
Codec ID/Info : UTF-8 Plain Text
Duration : 2 h 11 min
Bit rate : 76 b/s
Count of elements : 1822
Stream size : 74.1 KiB (0%)
Title : SDH
Language : English
Default : No
Forced : No

Menu
00:00:00.000 : en:Remember, Remember
00:02:24.519 : en:Man In A Mask
00:09:08.089 : en:Rooftop Concert
00:11:00.618 : en:Lead On The Girl
00:16:27.069 : en:VTV
00:21:56.649 : en:Response Time
00:25:01.500 : en:Captive For A Year
00:30:09.891 : en:Symbolic Acts
00:35:37.427 : en:Prothero's Past
00:40:37.393 : en:Afraid All The Time
00:43:14.217 : en:No Mercy For The Bishop
00:48:02.797 : en:Creedy's Threat
00:49:40.936 : en:Mystery Woman
00:54:10.122 : en:Bedside Manners
00:56:39.605 : en:Man From Room V
01:00:31.378 : en:What If?
01:04:47.050 : en:Gotcha
01:09:41.260 : en:Process Her
01:12:07.573 : en:Valerie's Autobiography
01:18:49.808 : en:Ready To Die
01:21:13.118 : en:God Is In The Rain
01:26:01.615 : en:Valerie's Legacy
01:29:38.915 : en:Can You Believe This?
01:32:08.314 : en:Pathogen Path To Power
01:36:21.275 : en:A Man As Smart
01:39:28.546 : en:Perfect Pattern
01:44:17.585 : en:Revolution Eve Dance
01:48:50.441 : en:End Of The Tunnel
01:52:03.800 : en:Swift Justice
01:53:57.706 : en:V's Turn
01:57:51.564 : en:Gift Of Love
01:59:35.293 : en:All Of Us
02:04:38.554 : en:End Credits




Скачать «V» значит Вендетта через торрент https://c.radikal.ru/c21/2011/d1/ef1257d8e63a.jpg Скачать, смотреть онлайн «V» значит Вендетта бесплантно в хорошем качестве Описание: Альтернативное будущее. Германия выигрывает Вторую мировую войну, Британия становится одной из провинций Третьего рейха. На ее ... 7.7 10 3
Торрент: Зарегистрирован [2020-11-01 11:52] · скачан: 71 раз
Статус: √ проверено
Размер: 68.82 GB
Как cкачать? Как скачать «V» значит Вендетта через торрент | UTorrent

% Раздел Тема Автор DL S | L
Фильмы [HD 720p, 1080p] (Хороший звук DUB, MVO) [ 7.75 GB ] «V» значит Вендетта / V for Vendetta | DUB + DVO + 2xAVO | 720p от _denis_100 / NNNB _denis_100 Скачать
2 | 0

28-11-2019 20:33  


Отключить вcю реклaмy на сайте, в т.ч. и в плеере онлайн просмотра!

    Дорогой пользователь! Огромная просьба, поблагодарите релизера, оцените раздачу и оставьте свои комментарий, если Вы скачали «V» значит Вендетта через торрент бесплатно!!
    Комментировать посты могут только пользователи прошедшие не сложную регистрацию
    Показать сообщения:    


    «V» значит Вендетта через торрент
    Скачать бесплатно «V» значит Вендетта
    «V» значит Вендетта скачать торрент
    «V» значит Вендетта смотреть онлайн
    Cкачать фильм «V» значит Вендетта бесплатно
    «V» значит Вендетта скачать торрент в хорошем качестве
    «V» значит Вендетта смотреть онлайн бесплатно в хорошем качестве
    Вы не можете начинать темы
    Вы не можете отвечать на сообщения
    Вы не можете редактировать свои сообщения
    Вы не можете удалять свои сообщения
    Вы не можете голосовать в опросах
    Вы не можете прикреплять файлы к сообщениям
    Вы можете скачивать файлы
    «V» значит Вендетта / V for Vendetta [2005, Фантастика, боевик, триллер, UHD BDRemux 2160p] Дубляж [Лицензия] +DVO+2xAVO смотреть онлайн, скачать торрент picoco.icu