Достать ножи: Стеклянная луковица

MVO

Добыча

Дубляж

Уэнсдэй

1 сезон

Тор

Дубляж

13 клиническая

1 сезон

Жестокая ночь

MVO

Одни из нас

1 сезон

Deluxe

pack

Рекомендуем

30

Пиратка

ВАЖНО

ВАЖНО

Ghostwire

Пиратка

jed

RePack

nioh2

RePack

RDR2

RePack

NEED FOR SPEED™ PAYBACK

RePack

скачать торрент

Кинопоиск HD

Острые козырьки 6 сезон

6 сезон

FAR CRY 6

RePack

скачать торрент

Лицензия

скачать торрент

MVO

1

1 сезон

скачать торрент

1 сезон

скачать торрент

Лицензия

  

Шоугелз / Showgirls (Пол Верховен) [1995, Драма, мелодрама, криминал, UHD BDRemux 2160p] Дубляж+3xAVO+3xMVO (rus, ukr)

Шоугелз через торрент piratbit.org

Размер: 66.82 GB | Добавлен: 2 года 3 мес. назад | Торрент скачан:31 раз
Смотреть онлайн | Скачать | Поддержите нас   

02-11-2020 18:50 Шоугелз Скачать торрент  

Шоугелз | Showgirls
Год выпуска: 1995
Страна: США, Франция
Студия: Carolco Pictures, Chargeurs, United Artists
Жанр: Драма, мелодрама, криминал
Продолжительность: 02:11:09
Перевод(ы):
#1: Дублированный | Нева 1
#2: Профессиональный многоголосый | CP Digital
#3: Профессиональный многоголосый | Black Street Records
#4: Профессиональный многоголосый | СТС
#5: Авторский | Живов
#6: Авторский | Яроцкий
#7: Авторский | Гаврилов
Субтитры: Русские (3 x full), английские

Режиссер: Пол Верховен

rating

В ролях: Элизабет Беркли, Джина Гершон, Кайл МакЛахлан, Роберт Дави, Гленн Пламмер, Алан Рачинс, Джина Равера, Лин Туччи, Грег Трэвис, Аль Руссо, Патрик Бристоу, Уильям Шокли, Рена Риффел, Мишель Джонстон, Дьюи Вебер

Описание: Молодая танцовщица Номи отчаянно пытается добиться успеха в Лас-Вегасе и проникнуть в блистающий мир ярких огней, блеска и света шоу — сцены. Чтобы удержаться «на плаву», она соглашается на единственно возможную работу — стриптиз, пока ей не удается вытянуть свой счастливый билет — познакомиться с королевой сцены Лас-Вегаса Кристал. Используя свое влияние, Кристал устраивает Номи в свое шоу и вводит ее в истинный мир шоу-бизнеса Лас-Вегаса — мир случая, предательства и интриг, в котором сексуальность можно использовать как Влacть.

Качество: UHD BDRemux 2160p
Формат: MKV

Видео: 3840x2160 at 23.976 fps, MPEG-H HEVC HDR Video, 45700 kbps avg
Аудио #01: 48 kHz, AC3, 2.0, 192 Kbps | Дублированный | Нева 1 | RUS |
Аудио #02: 48 kHz, DTS-HD MA, 5.1, 4471 Kbps | Профессиональный многоголосый | CP Digital | RUS |
Аудио #03: 48 kHz, DTS-HD MA, 5.1, 4007 Kbps | Профессиональный многоголосый | Black Street Records | RUS |
Аудио #04: 48 kHz, AC3, 2.0, 192 Kbps | Профессиональный многоголосый | СТС | RUS |
Аудио #05: 48 kHz, DTS-HD MA, 5.1, 4476 Kbps | Авторский | Живов | RUS |
Аудио #06: 48 kHz, DTS-HD MA, 5.1, 4492 Kbps | Авторский | Яроцкий | RUS |
Аудио #07: 48 kHz, DTS-HD MA, 5.1, 4478 Kbps | Авторский | Гаврилов | RUS |
Аудио #08: 48 kHz, AC3, 7.1, 448 Kbps | Профессиональный многоголосый | 1+1 | UKR |
Аудио #09: 48 kHz, DTS-HD MA, 5.1, 4466 Kbps | Оригинал | ENG |
скриншот  скриншот  скриншот  скриншот  скриншот  

General
Unique ID : 290861940504747831717050213585798844394 (0xDAD1F8DAE5079A5EF2FC99A987E44FEA)
Complete name : D:Video111Showgirls.1995.BDREMUX.2160p.HDR.seleZen.mkv
Format : Matroska
Format version : Version 4
File size : 66.8 GiB
Duration : 2 h 11 min
Overall bit rate mode : Variable
Overall bit rate : 72.9 Mb/s
Movie name : Showgirls 1995 UHD 4K from seleZen
Encoded date : UTC 2020-11-02 08:14:09
Writing application : mkvmerge v40.0.0 ('Old Town Road + Pony') 64-bit
Writing library : libebml v1.3.9 + libmatroska v1.5.2

Video
ID : 1
Format : HEVC
Format/Info : High Efficiency Video Coding
Format profile : Main 10@L5.1@High
HDR format : SMPTE ST 2094 App 4, Version 1, HDR10+ Profile B compatible
Codec ID : V_MPEGH/ISO/HEVC
Duration : 2 h 11 min
Bit rate : 45.7 Mb/s
Width : 3 840 pixels
Height : 2 160 pixels
Display aspect ratio : 16:9
Frame rate mode : Constant
Frame rate : 23.976 (24000/1001) FPS
Color space : YUV
Chroma subsampling : 4:2:0 (Type 2)
Bit depth : 10 bits
Bits/(Pixel*Frame) : 0.230
Stream size : 41.9 GiB (63%)
Language : English
Default : Yes
Forced : No
Color range : Limited
Color primaries : BT.2020
Transfer characteristics : PQ
Matrix coefficients : BT.2020 non-constant
Mastering display color pri : Display P3
Mastering display luminance : min: 0.0050 cd/m2, max: 1000 cd/m2
Maximum Content Light Level : 1000 cd/m2
Maximum Frame-Average Light : 400 cd/m2

Audio #1
ID : 2
Format : AC-3
Format/Info : Audio Coding 3
Commercial name : Dolby Digital
Codec ID : A_AC3
Duration : 2 h 11 min
Bit rate mode : Constant
Bit rate : 192 kb/s
Channel(s) : 2 channels
Channel layout : L R
Sampling rate : 48.0 kHz
Frame rate : 31.250 FPS (1536 SPF)
Compression mode : Lossy
Stream size : 180 MiB (0%)
Title : Дубляж [Нева 1]
Language : Russian
Service kind : Complete Main
Default : Yes
Forced : Yes

Audio #2
ID : 3
Format : DTS XLL
Format/Info : Digital Theater Systems
Commercial name : DTS-HD Master Audio
Codec ID : A_DTS
Duration : 2 h 11 min
Bit rate mode : Variable
Bit rate : 4 471 kb/s
Channel(s) : 6 channels
Channel layout : C L R Ls Rs LFE
Sampling rate : 48.0 kHz
Frame rate : 93.750 FPS (512 SPF)
Bit depth : 24 bits
Compression mode : Lossless
Stream size : 4.09 GiB (6%)
Title : MVO [CP Digital]
Language : Russian
Default : No
Forced : No

Audio #3
ID : 4
Format : DTS XLL
Format/Info : Digital Theater Systems
Commercial name : DTS-HD Master Audio
Codec ID : A_DTS
Duration : 2 h 11 min
Bit rate mode : Variable
Bit rate : 4 007 kb/s
Channel(s) : 6 channels
Channel layout : C L R Ls Rs LFE
Sampling rate : 48.0 kHz
Frame rate : 93.750 FPS (512 SPF)
Bit depth : 24 bits
Compression mode : Lossless
Stream size : 3.67 GiB (5%)
Title : MVO [Black Street Records]
Language : Russian
Default : No
Forced : No

Audio #4
ID : 5
Format : AC-3
Format/Info : Audio Coding 3
Commercial name : Dolby Digital
Codec ID : A_AC3
Duration : 2 h 11 min
Bit rate mode : Constant
Bit rate : 192 kb/s
Channel(s) : 2 channels
Channel layout : L R
Sampling rate : 48.0 kHz
Frame rate : 31.250 FPS (1536 SPF)
Compression mode : Lossy
Stream size : 180 MiB (0%)
Title : MVO [CTC]
Language : Russian
Service kind : Complete Main
Default : No
Forced : No

Audio #5
ID : 6
Format : DTS XLL
Format/Info : Digital Theater Systems
Commercial name : DTS-HD Master Audio
Codec ID : A_DTS
Duration : 2 h 11 min
Bit rate mode : Variable
Bit rate : 4 476 kb/s
Channel(s) : 6 channels
Channel layout : C L R Ls Rs LFE
Sampling rate : 48.0 kHz
Frame rate : 93.750 FPS (512 SPF)
Bit depth : 24 bits
Compression mode : Lossless
Stream size : 4.10 GiB (6%)
Title : AVO [Живов]
Language : Russian
Default : No
Forced : No

Audio #6
ID : 7
Format : DTS XLL
Format/Info : Digital Theater Systems
Commercial name : DTS-HD Master Audio
Codec ID : A_DTS
Duration : 2 h 11 min
Bit rate mode : Variable
Bit rate : 4 492 kb/s
Channel(s) : 6 channels
Channel layout : C L R Ls Rs LFE
Sampling rate : 48.0 kHz
Frame rate : 93.750 FPS (512 SPF)
Bit depth : 24 bits
Compression mode : Lossless
Stream size : 4.11 GiB (6%)
Title : AVO [Яроцкий]
Language : Russian
Default : No
Forced : No

Audio #7
ID : 8
Format : DTS XLL
Format/Info : Digital Theater Systems
Commercial name : DTS-HD Master Audio
Codec ID : A_DTS
Duration : 2 h 11 min
Bit rate mode : Variable
Bit rate : 4 478 kb/s
Channel(s) : 6 channels
Channel layout : C L R Ls Rs LFE
Sampling rate : 48.0 kHz
Frame rate : 93.750 FPS (512 SPF)
Bit depth : 24 bits
Compression mode : Lossless
Stream size : 4.10 GiB (6%)
Title : AVO [Гаврилов]
Language : Russian
Default : No
Forced : No

Audio #8
ID : 9
Format : AC-3
Format/Info : Audio Coding 3
Commercial name : Dolby Digital
Codec ID : A_AC3
Duration : 2 h 11 min
Bit rate mode : Constant
Bit rate : 448 kb/s
Channel(s) : 6 channels
Channel layout : L R C LFE Ls Rs
Sampling rate : 48.0 kHz
Frame rate : 31.250 FPS (1536 SPF)
Compression mode : Lossy
Stream size : 420 MiB (1%)
Title : MVO [1+1]
Language : Ukrainian
Service kind : Complete Main
Default : No
Forced : No

Audio #9
ID : 10
Format : DTS XLL
Format/Info : Digital Theater Systems
Commercial name : DTS-HD Master Audio
Codec ID : A_DTS
Duration : 2 h 11 min
Bit rate mode : Variable
Bit rate : 4 466 kb/s
Channel(s) : 6 channels
Channel layout : C L R Ls Rs LFE
Sampling rate : 48.0 kHz
Frame rate : 93.750 FPS (512 SPF)
Bit depth : 24 bits
Compression mode : Lossless
Stream size : 4.09 GiB (6%)
Title : Original
Language : English
Default : No
Forced : No

Text #1
ID : 11
Format : UTF-8
Codec ID : S_TEXT/UTF8
Codec ID/Info : UTF-8 Plain Text
Duration : 2 h 2 min
Bit rate : 78 b/s
Count of elements : 1375
Stream size : 70.5 KiB (0%)
Title : Full v.1
Language : Russian
Default : No
Forced : No

Text #2
ID : 12
Format : UTF-8
Codec ID : S_TEXT/UTF8
Codec ID/Info : UTF-8 Plain Text
Duration : 2 h 5 min
Bit rate : 76 b/s
Count of elements : 1249
Stream size : 69.8 KiB (0%)
Title : Full v.2
Language : Russian
Default : No
Forced : No

Text #3
ID : 13
Format : UTF-8
Codec ID : S_TEXT/UTF8
Codec ID/Info : UTF-8 Plain Text
Duration : 2 h 2 min
Bit rate : 78 b/s
Count of elements : 1375
Stream size : 70.5 KiB (0%)
Title : Full v.3
Language : Russian
Default : No
Forced : No

Text #4
ID : 14
Format : UTF-8
Codec ID : S_TEXT/UTF8
Codec ID/Info : UTF-8 Plain Text
Duration : 2 h 9 min
Bit rate : 45 b/s
Count of elements : 1956
Stream size : 43.2 KiB (0%)
Title : Full
Language : English
Default : No
Forced : No

Menu
00:00:00.000 : en:Title/Switchblade Nomi
00:03:00.138 : en:Friend or Faux
00:07:51.846 : en:It's the Show, Girl!
00:12:00.345 : en:Cristal Magic
00:15:44.235 : en:She Can Dance
00:19:22.870 : en:Cheetah's House Rules
00:22:23.175 : en:Is it Dancing?
00:25:54.634 : en:Lap Dancer's Delight
00:33:49.569 : en:The Dress She Wants
00:35:49.314 : en:Stardust Material
00:37:40.175 : en:Audition: Impossible
00:43:35.571 : en:Training Ground
00:49:11.240 : en:Movin' on Up
00:52:44.161 : en:"It's a Ver-sayce"
00:56:11.702 : en:Practice Run
00:58:05.732 : en:For the Very First Time
01:02:23.323 : en:Discarded
01:04:29.324 : en:A New Start
01:11:17.565 : en:Boat Convention
01:17:55.921 : en:Tough Break No. 1
01:22:47.588 : en:Pool Daze
01:29:08.009 : en:"Nomi's Got Heat"
01:31:07.212 : en:James' Show
01:37:04.235 : en:Easy Come, Easy Go
01:38:28.736 : en:Touch Break No. 2
01:42:17.465 : en:A Star is Born
01:45:14.850 : en:Sad, Mad Molly
01:46:39.518 : en:Goddess, Star & Groupie
01:52:18.649 : en:Polly's Rap Sheet
01:55:26.837 : en:Payback
01:58:30.103 : en:Nicely Settled
02:03:18.683 : en:End Credits




Скачать Шоугелз через торрент https://c.radikal.ru/c15/2011/75/85f98911aa20.jpg Скачать, смотреть онлайн Шоугелз бесплантно в хорошем качестве Описание: Молодая танцовщица Номи отчаянно пытается добиться успеха в Лас-Вегасе и проникнуть в блистающий мир ярких огней, блеска и света ... 10 10 5
Торрент: Зарегистрирован [2020-11-02 18:50] · скачан: 31 раз
Статус: √ проверено
Размер: 66.82 GB
Как cкачать? Как скачать Шоугелз через торрент | UTorrent

% Раздел Тема Автор DL S | L
Фильмы [HD 720p, 1080p] (Хороший звук DUB, MVO) [ 4.96 GB ] Шоугёлз / Showgirls | Дубляж | 1080p, HEVC (10bit Мичман37 Скачать
1 | 0
Фильмы [HD 720p, 1080p] (Хороший звук DUB, MVO) [ 11.78 GB ] Шоугелз / Showgirls | DUB + 3xMVO + 2xAVO + Original + Sub | 720p от _denis_100 | NNNB _denis_100 Скачать
1 | 0
Фильмы до 2000 г. [ 2.19 GB ] Шоугелз / Showgirls | | BDRip кэп Скачать
1 | 0

28-11-2019 20:33  


Отключить вcю реклaмy на сайте, в т.ч. и в плеере онлайн просмотра!

    Дорогой пользователь! Огромная просьба, поблагодарите релизера, оцените раздачу и оставьте свои комментарий, если Вы скачали Шоугелз через торрент бесплатно!!
    Комментировать посты могут только пользователи прошедшие не сложную регистрацию
    Показать сообщения:    


    Шоугелз через торрент
    Скачать бесплатно Шоугелз
    Шоугелз скачать торрент
    Шоугелз смотреть онлайн
    Cкачать фильм Шоугелз бесплатно
    Шоугелз скачать торрент в хорошем качестве
    Шоугелз смотреть онлайн бесплатно в хорошем качестве
    Вы не можете начинать темы
    Вы не можете отвечать на сообщения
    Вы не можете редактировать свои сообщения
    Вы не можете удалять свои сообщения
    Вы не можете голосовать в опросах
    Вы не можете прикреплять файлы к сообщениям
    Вы можете скачивать файлы
    Шоугелз / Showgirls [1995, Драма, мелодрама, криминал, UHD BDRemux 2160p] Дубляж+3xAVO+3xMVO смотреть онлайн, скачать торрент picoco.icu