1 сезон

3 сезон

iTunes

1

iTunes

DUB Netflix

iTunes

13

1 сезон

RePack

30

Deluxe

pack

Легкие деньги

ВАЖНО

ИГРА 18+

pack

RePack

MK11

RePack

jed

RePack

fifa19

RePack

RDR2

RePack

NEED FOR SPEED™ PAYBACK

4 сезон

9 сезон

Бесстыжие 9 сезон

Все сериалы

все сериалы на PB.wtf

RePack

FAR CRY 5

Anonymous, доброй ночи, мы не успеваем до 1 числа собрать деньги на оплату серверов, помогите нам пожалуйста в это трудное время. В качестве благодарности мы отключим Вам всю рекламу на сайте (укажите свой ник в строку Ваше имя)!

×
  
Magnet ссылка

Иванько / Сезон: 1 / Серии: 1-17 из 17 (Шота Гамисония, Всеволод Бродский, Ксения Воронина) [2020, Комедия, SATRip] piratbit.org

Иванько через торрент piratbit.org

Качают: 1 [ 0 KB/s ]
Размер: 4.98 GB | Добавлен: 6 мес. назад | Торрент скачан:103 раза
Скачать  

02-11-2020 20:11 Иванько Скачать торрент  

Иванько
Год выпуска: 2020
Страна: Россия
Выпущено: Good Story Media по заказу телеканала ТНТ
Жанр: Комедия
Продолжительность: ~ 00:25:00 серия
Перевод: Не требуется
Субтитры: отсутствуют

Режиссер: Шота Гамисония, Всеволод Бродский, Ксения Воронина



В ролях: Ангелина Миримская, Валентина Мазунина, Виктория Заболотная, Михаил Тройник, Алексей Вертков, Денис Шведов, Елена Шевченко, Алексей Ведерников (II), Шота Гамисония, Анастасия Акатова, Антон Шаврин, Александр Яценко, Валерия Яковлева, Георгий Сегал, Никита Карбан, Полина Давыдова

Описание: Раскрепощенная и хамоватая Настя — учительница танцев и тамада, скромница Валя — психолог и учительница английского. Им чуть за тридцать, и вроде все, как у всех. Но одна до сих пор живет с мамой, вторая с ненадежным бойфрендом, с которым у нее постоянные скандалы. Они встретились при странных обстоятельствах — в обезьяннике в отделе полиции. Выслушав истории друг друга, девушки решают во что бы то ни стало помочь подруге изменить жизнь, не спрашивая, хочет она этого или нет. Но именно это вмешательство помогает им понять, что, на самом деле, обе они несчастны, и с этим уже пора что-то делать. Но понять – еще не значит изменить. Этот путь оказывается не так уж и прост. В погоне за счастьем они постоянно спотыкаются, наступают на одни и те же грабли, усугубляя и без того навалившиеся проблемы с личной жизнью, работой, родителями.

Качество: SATRip
Формат: AVI

Видео: XviD, ~ 1550 Кбит/с, 720x400
Аудио: MP3, 2 ch, 192 Кбит/с
скриншот  скриншот  скриншот  скриншот  

Общее
Полное имя : C:\Ivanko.2020.XviD.SATRip.25Kuzmich\Ivanko.e01.XviD.SATRip.25Kuzmich.avi
Формат : AVI
Формат/Информация : Audio Video Interleave
Размер файла : 300 Мбайт
Продолжительность : 24 м. 29 с.
Общий поток : 1710 Кбит/сек
Программа кодирования : VirtualDubMod 1.5.10.3 | www.virtualdub-fr.org || (build 2550/release)
Библиотека кодирования : VirtualDubMod build 2550/release

Видео
Идентификатор : 0
Формат : MPEG-4 Visual
Профиль формата : Advanced Simple@L5
Настройки формата : BVOP1
Параметр BVOP формата : 1
Параметр QPel формата : Нет
Параметр GMC формата : Без точки перехода
Параметр матрицы формата : Default (MPEG)
Идентификатор кодека : XVID
Идентификатор кодека/Подсказка : XviD
Продолжительность : 24 м. 29 с.
Битрейт : 1542 Кбит/сек
Ширина : 720 пикселей
Высота : 400 пикселей
Соотношение сторон : 16:9
Частота кадров : 25,000 кадров/сек
Цветовое пространство : YUV
Субдискретизация насыщенности : 4:2:0
Битовая глубина : 8 бит
Тип развёртки : Прогрессивная
Метод сжатия : С потерями
Бит/(Пиксели*Кадры) : 0.200
Размер потока : 253 Мбайт (84%)
Библиотека кодирования : XviD 73

Аудио
Идентификатор : 1
Формат : MPEG Audio
Версия формата : Version 1
Профиль формата : Layer 3
Настройки формата : Joint stereo / MS Stereo
Идентификатор кодека : 55
Идентификатор кодека/Подсказка : MP3
Продолжительность : 24 м. 29 с.
Вид битрейта : Постоянный
Битрейт : 192 Кбит/сек
Каналы : 2 канала
Частота : 48,0 КГц
Частота кадров : 41,667 кадра/сек (1152 SPF)
Метод сжатия : С потерями
Размер потока : 33,6 Мбайт (11%)
Выравнивание : Соединение по промежуткам
Библиотека кодирования : LAME3.99r
Настройки программы : -m j -V 4 -q 2 -lowpass 18.6 -b 192

Когда раздача ведётся путём добавления новых серий, при каждом добавлении создётся новый торрент. Чтобы начать докачку новой серии, пользователям необходимо сделать следующее:
(1) остановить скачивание,
(2) удалить старый торрент у себя из клиента (старые серии удалять не надо),
(3) скачать новый торрент и запустить его у себя в клиенте вместо старого, при этом указать клиенту путь в старую папку, куда и должно происходить скачивание новых серий.
Ваш клиент при этом должен произвести хеширование (проверку) старой папки (если не производит сам - помогите ему сделать это), и будет докачивать только те серии, которых у вас ещё нет. Старые серии при этом не удаляются, а продолжают раздаваться!
Eсли вы уже удалили старые серии, то предотвратить повторную закачку старых серий можно, отжав галочку в соответсвующих местах при запуске нового торрента. По возможности, желательно не удалять старые серии как можно дольше, чтобы релизёр не столько продолжал раздавать старые серии, а смог сконцентрироваться на новых.

piratbit.org



Скачать Иванько через торрент https://img11.lostpic.net/2020/11/02/875dac704794e893b35e7e95091f5e1b.jpg Скачать фильм Иванько через торрент бесплантно в хорошем качестве Описание: Раскрепощенная и хамоватая Настя — учительница танцев и тамада, скромница Валя — психолог и учительница английского. Им чуть за ... 9.5 10 27
Info! Золотая раздача, скачанное не засчитывается.
Торрент: Зарегистрирован [2020-11-26 14:23] · скачан: 103 раз
Статус: √ проверено
Размер: 4.98 GB
Как cкачать? Как скачать Иванько через торрент | UTorrent

% Раздел Тема Автор DL S | L
TNT serials [ 4.98 GB ] Иванько / Сезон: 1 / Серии: 1-17 из 17 [2020 WEBRip] bober100 Скачать
1 | 0
TNT serials [ 18.3 GB ] Иванько / Сезон: 1 / Серии: 1-17 из 17 [2020 HDTV 1080i] bober100 Скачать
1 | 0
TNT serials [ 5.32 GB ] Иванько / Сезон: 1 / Серии: 1-17 из 17 [2020 WEBRip-AVC] bober100 Скачать
1 | 0
TNT serials [ 9.46 GB ] Иванько / Сезон: 1 / Серии: 1-17 из 17 [2020 WEBRip 720p] bober100 Скачать
1 | 1
TNT serials [ 13.92 GB ] Иванько / Сезон: 1 / Серии: 1-17 из 17 [2020 WEBRip 1080p] bober100 Скачать
1 | 0


Последний раз редактировалось: bober100 (2020-11-26 14:23), всего редактировалось 4 раз(а)

28-11-2019 20:33  

Отключить всю рекламу на сайте

    Дорогой пользователь! Огромная просьба, поблагодарите релизера, оцените раздачу и оставьте свои комментарий, если Вы скачали Иванько через торрент бесплатно! Внесите свою лепту в развитие PiratBit!
    Комментировать посты могут только пользователи прошедшие не сложную регистрацию
    Показать сообщения:    

    Иванько через торрент
    Скачать бесплатно Иванько
    Иванько скачать торрент
    Иванько смотреть онлайн
    Cкачать фильм Иванько бесплатно
    Иванько скачать торрент в хорошем качестве
    Иванько смотреть онлайн бесплатно в хорошем качестве


    Вы не можете начинать темы
    Вы не можете отвечать на сообщения
    Вы не можете редактировать свои сообщения
    Вы не можете удалять свои сообщения
    Вы не можете голосовать в опросах
    Вы не можете прикреплять файлы к сообщениям
    Вы можете скачивать файлы