1 сезон

3 сезон

iTunes

1

iTunes

DUB Netflix

iTunes

13

1 сезон

RePack

30

Deluxe

pack

Легкие деньги

ВАЖНО

ИГРА 18+

pack

RePack

MK11

RePack

jed

RePack

fifa19

RePack

RDR2

RePack

NEED FOR SPEED™ PAYBACK

4 сезон

9 сезон

Бесстыжие 9 сезон

Все сериалы

все сериалы на PB.wtf

RePack

FAR CRY 5

Anonymous, добрый вечер, мы не успеваем до 1 числа собрать деньги на оплату серверов, помогите нам пожалуйста в это трудное время. В качестве благодарности мы отключим Вам всю рекламу на сайте (укажите свой ник в строку Ваше имя)!

×
  
Magnet ссылка

Иванько / Сезон: 1 / Серии: 1-17 из 17 (Шота Гамисония, Всеволод Бродский, Ксения Воронина) [2020, Комедия, WEBRip 1080p] piratbit.org

Иванько через торрент piratbit.org

Размер: 13.92 GB | Добавлен: 6 мес. назад | Торрент скачан:79 раз
Скачать  

02-11-2020 20:11 Иванько Скачать торрент  

Иванько
Год выпуска: 2020
Страна: Россия
Выпущено: Good Story Media по заказу телеканала ТНТ
Жанр: Комедия
Продолжительность: ~ 00:25:00 серия
Перевод: Не требуется
Субтитры: отсутствуют

Режиссер: Шота Гамисония, Всеволод Бродский, Ксения Воронина



В ролях: Ангелина Миримская, Валентина Мазунина, Виктория Заболотная, Михаил Тройник, Алексей Вертков, Денис Шведов, Елена Шевченко, Алексей Ведерников (II), Шота Гамисония, Анастасия Акатова, Антон Шаврин, Александр Яценко, Валерия Яковлева, Георгий Сегал, Никита Карбан, Полина Давыдова

Описание: Раскрепощенная и хамоватая Настя — учительница танцев и тамада, скромница Валя — психолог и учительница английского. Им чуть за тридцать, и вроде все, как у всех. Но одна до сих пор живет с мамой, вторая с ненадежным бойфрендом, с которым у нее постоянные скандалы. Они встретились при странных обстоятельствах — в обезьяннике в отделе полиции. Выслушав истории друг друга, девушки решают во что бы то ни стало помочь подруге изменить жизнь, не спрашивая, хочет она этого или нет. Но именно это вмешательство помогает им понять, что, на самом деле, обе они несчастны, и с этим уже пора что-то делать. Но понять – еще не значит изменить. Этот путь оказывается не так уж и прост. В погоне за счастьем они постоянно спотыкаются, наступают на одни и те же грабли, усугубляя и без того навалившиеся проблемы с личной жизнью, работой, родителями.

Качество: WEBRip 1080p
Формат: MKV

Видео: MPEG-4 AVC, ~ 4500 Кбит/с, 1920x1072
Аудио: 48.0 kHz, AC3 Dolby Digital, 2/0 (L,R) ch, ~ 192 kbps
скриншот  скриншот  скриншот  скриншот  

Общее
Уникальный идентификатор : 186965772417021686130644646326849769787 (0x8CA84C479679F6C58081954FE42C113B)
Полное имя : C:\Ivanko.2020.WEB-DL.(1080p).Getty\Ivanko.e01.2020.WEB-DL.(1080p).Getty.mkv
Формат : Matroska
Версия формата : Version 4
Размер файла : 855 Мбайт
Продолжительность : 25 м. 28 с.
Режим общего битрейта : Переменный
Общий поток : 4693 Кбит/сек
Название фильма : Ivanko.e01.2020.WEB-DL.(1080p).Getty
Дата кодирования : UTC 2020-11-02 17:33:09
Программа кодирования : mkvmerge v7.8.0 ('River Man') 32bit built on Mar 27 2015 16:18:02
Библиотека кодирования : libebml v1.3.1 + libmatroska v1.4.2

Видео
Идентификатор : 1
Формат : AVC
Формат/Информация : Advanced Video Codec
Профиль формата : High@L4
Настройки формата : CABAC / 1 Ref Frames
Параметр CABAC формата : Да
Параметр RefFrames формата : 1 кадр
Идентификатор кодека : V_MPEG4/ISO/AVC
Продолжительность : 25 м. 28 с.
Вид битрейта : Переменный
Битрейт : 4407 Кбит/сек
Максимальный битрейт : 4500 Кбит/сек
Ширина : 1920 пикселей
Высота : 1072 пикселя
Соотношение сторон : 16:9
Режим частоты кадров : Постоянный
Частота кадров : 25,000 кадров/сек
Цветовое пространство : YUV
Субдискретизация насыщенности : 4:2:0
Битовая глубина : 8 бит
Тип развёртки : Прогрессивная
Бит/(Пиксели*Кадры) : 0.086
Размер потока : 803 Мбайт (94%)
Default : Да
Forced : Нет

Аудио
Идентификатор : 2
Формат : AC-3
Формат/Информация : Audio Coding 3
Коммерческое название : Dolby Digital
Идентификатор кодека : A_AC3
Продолжительность : 25 м. 28 с.
Вид битрейта : Постоянный
Битрейт : 192 Кбит/сек
Каналы : 2 канала
ChannelLayout : L R
Частота : 48,0 КГц
Частота кадров : 31,250 кадров/сек (1536 SPF)
Битовая глубина : 16 бит
Метод сжатия : С потерями
Размер потока : 35,0 Мбайт (4%)
ServiceKind/String : Complete Main
Default : Да
Forced : Нет

Когда раздача ведётся путём добавления новых серий, при каждом добавлении создётся новый торрент. Чтобы начать докачку новой серии, пользователям необходимо сделать следующее:
(1) остановить скачивание,
(2) удалить старый торрент у себя из клиента (старые серии удалять не надо),
(3) скачать новый торрент и запустить его у себя в клиенте вместо старого, при этом указать клиенту путь в старую папку, куда и должно происходить скачивание новых серий.
Ваш клиент при этом должен произвести хеширование (проверку) старой папки (если не производит сам - помогите ему сделать это), и будет докачивать только те серии, которых у вас ещё нет. Старые серии при этом не удаляются, а продолжают раздаваться!
Eсли вы уже удалили старые серии, то предотвратить повторную закачку старых серий можно, отжав галочку в соответсвующих местах при запуске нового торрента. По возможности, желательно не удалять старые серии как можно дольше, чтобы релизёр не столько продолжал раздавать старые серии, а смог сконцентрироваться на новых.

piratbit.org



Скачать Иванько через торрент https://img11.lostpic.net/2020/11/02/875dac704794e893b35e7e95091f5e1b.jpg Скачать фильм Иванько через торрент бесплантно в хорошем качестве Описание: Раскрепощенная и хамоватая Настя — учительница танцев и тамада, скромница Валя — психолог и учительница английского. Им чуть за ... 10 10 16
Торрент: Зарегистрирован [2020-11-26 18:23] · скачан: 79 раз
Статус: √ проверено
Размер: 13.92 GB
Как cкачать? Как скачать Иванько через торрент | UTorrent

% Раздел Тема Автор DL S | L
TNT serials [ 4.98 GB ] Иванько / Сезон: 1 / Серии: 1-17 из 17 [2020 WEBRip] bober100 Скачать
3 | 0
TNT serials [ 18.3 GB ] Иванько / Сезон: 1 / Серии: 1-17 из 17 [2020 HDTV 1080i] bober100 Скачать
2 | 0
TNT serials [ 5.32 GB ] Иванько / Сезон: 1 / Серии: 1-17 из 17 [2020 WEBRip-AVC] bober100 Скачать
1 | 0
TNT serials [ 9.46 GB ] Иванько / Сезон: 1 / Серии: 1-17 из 17 [2020 WEBRip 720p] bober100 Скачать
1 | 0
TNT serials [ 4.98 GB ] Иванько / Сезон: 1 / Серии: 1-17 из 17 [2020 SATRip] bober100 Скачать
2 | 0

28-11-2019 20:33  

Отключить всю рекламу на сайте

    Дорогой пользователь! Огромная просьба, поблагодарите релизера, оцените раздачу и оставьте свои комментарий, если Вы скачали Иванько через торрент бесплатно! Внесите свою лепту в развитие PiratBit!
    Комментировать посты могут только пользователи прошедшие не сложную регистрацию
    Показать сообщения:    

    Иванько через торрент
    Скачать бесплатно Иванько
    Иванько скачать торрент
    Иванько смотреть онлайн
    Cкачать фильм Иванько бесплатно
    Иванько скачать торрент в хорошем качестве
    Иванько смотреть онлайн бесплатно в хорошем качестве


    Вы не можете начинать темы
    Вы не можете отвечать на сообщения
    Вы не можете редактировать свои сообщения
    Вы не можете удалять свои сообщения
    Вы не можете голосовать в опросах
    Вы не можете прикреплять файлы к сообщениям
    Вы можете скачивать файлы