Ссылка на приватное зеркало нашего сайта всего за 1$. Внимание количество ограничено!!!

2 сезон

iTunes

1 сезон

1

2 сезон

2 сезон

iTunes

1 сезон

RePack

30

Ultimate

ВАЖНО

ИГРА 18+

pack

RePack

MK11
pack

Забери бонус

RePack

jed

!!Акция!!

Alien_Rage

RePack

fifa19

RePack

Assassins Creed: Odyssey

RePack

NEED FOR SPEED™ PAYBACK

4 сезон

9 сезон

Бесстыжие 9 сезон

Все сериалы

все сериалы на PB.wtf

RePack

FAR CRY 5
  

Криптид / Cryptid / Сезон: 1 / Серии: 1-8 из 10 (Дэвид Беррон) [2020, Ужасы, триллер, драма, WEB-DL 1080p] DVO [Кубик в Кубе] +2xMVO piratbit.org

Криптид через торрент piratbit.org

Раздают: 3 [ 0 KB/s ]
Размер: 7.69 GB | Добавлен: 4 д. назад | Торрент скачан:4 раза
Скачать  

04-11-2020 20:10 Криптид Скачать торрент  

Криптид | Cryptid
Год выпуска: 2020
Страна: Швеция
Выпущено: Dramacorp
Жанр: Ужасы, триллер, драма
Продолжительность: ~ 00:22:00 серия
Перевод:
Профессиональный (двухголосый) | Кубик в Кубе (18+)
Профессиональный (многоголосый закадровый) | HDRezka Studio
Профессиональный (многоголосый закадровый) | IdeaFilm
Субтитры: Pусские (Forced), английские

Режиссер: Дэвид Беррон

rating

В ролях: Майя Йоханна Энгландер, Юлиус Флейшандерл, Астрид Морберг, Беата Борелиус, Йохан Хеденберг, Денисе Игнасио Ниман, Кристиан Сундгрен, Оскар Зия, Анджелина Хаканссон, Арвин Кананян

Описание: После трагической и скоропостижной смерти матери, случившейся несколько лет назад, брат Никлас и сестра Лиса так и не смогли наладить нормальную жизнь. Лиса предпочла сбежать от проблем в поисках нового счастья, а Никлас остался ухаживать за скорбящим отцом. Когда в один и тот же день ужасным и непостижимым образом погибает его одноклассник и возвращается сестра, с которой Никлас давным-давно не виделся, хрупкая психика юноши не выдерживает. В то время, как школьников города постепенно охватывает ужас, Никлас сталкивается с юношеской драмой, с душевной болезнью и с подозрениями в убийстве. В свою очередь у Лисы начинаются видения, связанные с матерью и кровавыми оккультными обрядами. По мере того, как Лиса погружается в тайны смерти матери, в наш мир выходит древнее зло, чтобы вдоволь насладиться пиршеством хаоса и страданий.

Качество: WEB-DL 1080p
Формат: MKV

Видео: MPEG-4 AVC, ~ 4960 Кбит/с, 1920x1080
Аудио#1: Русский (AC3, 6 ch, 384 Кбит/с)
Аудио#2: Русский (AC3, 6 ch, 384 Кбит/с)
Аудио#3: Русский (AC3, 6 ch, 384 Кбит/с)
Аудио#4: шведский (AC3, 6 ch, 384 Кбит/с)
скриншот  скриншот  

Общее
Уникальный идентификатор : 178704846678925282126076033994135510204 (0x86714D31E5744EE766F8C19417C51CBC)
Полное имя : C:\Cryptid.S01.1080p.WEB-DL_[EniaHD]\Cryptid.S01.E01.1080p.WEB-DL.3xRus_EniaHD.mkv
Формат : Matroska
Версия формата : Version 4
Размер файла : 956 Мбайт
Продолжительность : 20 м. 32 с.
Режим общего битрейта : Переменный
Общий поток : 6504 Кбит/сек
Дата кодирования : UTC 2020-11-01 17:06:01
Программа кодирования : mkvmerge v49.0.0 ('Sick Of Losing Soulmates') 64-bit
Библиотека кодирования : libebml v1.4.0 + libmatroska v1.6.1

Видео
Идентификатор : 1
Формат : AVC
Формат/Информация : Advanced Video Codec
Профиль формата : High@L4.1
Настройки формата : CABAC / 3 Ref Frames
Параметр CABAC формата : Да
Параметр RefFrames формата : 3 кадра
Идентификатор кодека : V_MPEG4/ISO/AVC
Продолжительность : 20 м. 32 с.
Вид битрейта : Переменный
Битрейт : 4839 Кбит/сек
Максимальный битрейт : 7200 Кбит/сек
Ширина : 1920 пикселей
Высота : 1080 пикселей
Соотношение сторон : 16:9
Режим частоты кадров : Постоянный
Частота кадров : 25,000 кадров/сек
Цветовое пространство : YUV
Субдискретизация насыщенности : 4:2:0
Битовая глубина : 8 бит
Тип развёртки : Прогрессивная
Бит/(Пиксели*Кадры) : 0.093
Размер потока : 711 Мбайт (74%)
Язык : Swedish
Default : Да
Forced : Нет

Аудио #1
Идентификатор : 2
Формат : AC-3
Формат/Информация : Audio Coding 3
Коммерческое название : Dolby Digital
Идентификатор кодека : A_AC3
Продолжительность : 20 м. 32 с.
Вид битрейта : Постоянный
Битрейт : 384 Кбит/сек
Каналы : 6 каналов
ChannelLayout : L R C LFE Ls Rs
Частота : 48,0 КГц
Частота кадров : 31,250 кадров/сек (1536 SPF)
Битовая глубина : 16 бит
Метод сжатия : С потерями
Размер потока : 56,4 Мбайт (6%)
Заголовок : Кубик в Кубе
Язык : Russian
ServiceKind/String : Complete Main
Default : Да
Forced : Нет

Аудио #2
Идентификатор : 3
Формат : AC-3
Формат/Информация : Audio Coding 3
Коммерческое название : Dolby Digital
Идентификатор кодека : A_AC3
Продолжительность : 20 м. 32 с.
Вид битрейта : Постоянный
Битрейт : 384 Кбит/сек
Каналы : 6 каналов
ChannelLayout : L R C LFE Ls Rs
Частота : 48,0 КГц
Частота кадров : 31,250 кадров/сек (1536 SPF)
Битовая глубина : 16 бит
Метод сжатия : С потерями
Размер потока : 56,4 Мбайт (6%)
Заголовок : HDRezka Studio
Язык : Russian
ServiceKind/String : Complete Main
Default : Нет
Forced : Нет

Аудио #3
Идентификатор : 4
Формат : AC-3
Формат/Информация : Audio Coding 3
Коммерческое название : Dolby Digital
Идентификатор кодека : A_AC3
Продолжительность : 20 м. 32 с.
Вид битрейта : Постоянный
Битрейт : 384 Кбит/сек
Каналы : 6 каналов
ChannelLayout : L R C LFE Ls Rs
Частота : 48,0 КГц
Частота кадров : 31,250 кадров/сек (1536 SPF)
Битовая глубина : 16 бит
Метод сжатия : С потерями
Размер потока : 56,4 Мбайт (6%)
Заголовок : Ideafilm
Язык : Russian
ServiceKind/String : Complete Main
Default : Нет
Forced : Нет

Аудио #4
Идентификатор : 5
Формат : AC-3
Формат/Информация : Audio Coding 3
Коммерческое название : Dolby Digital
Идентификатор кодека : A_AC3
Продолжительность : 20 м. 32 с.
Вид битрейта : Постоянный
Битрейт : 384 Кбит/сек
Каналы : 6 каналов
ChannelLayout : L R C LFE Ls Rs
Частота : 48,0 КГц
Частота кадров : 31,250 кадров/сек (1536 SPF)
Битовая глубина : 16 бит
Метод сжатия : С потерями
Размер потока : 56,4 Мбайт (6%)
Язык : Swedish
ServiceKind/String : Complete Main
Default : Нет
Forced : Нет

Текст #1
Идентификатор : 6
Формат : UTF-8
Идентификатор кодека : S_TEXT/UTF8
Идентификатор кодека/Информация : UTF-8 Plain Text
Заголовок : Forced
Язык : Russian
Default : Да
Forced : Нет

Текст #2
Идентификатор : 7
Формат : UTF-8
Идентификатор кодека : S_TEXT/UTF8
Идентификатор кодека/Информация : UTF-8 Plain Text
Заголовок : English
Язык : English
Default : Нет
Forced : Нет

Когда раздача ведётся путём добавления новых серий, при каждом добавлении создётся новый торрент. Чтобы начать докачку новой серии, пользователям необходимо сделать следующее:
(1) остановить скачивание,
(2) удалить старый торрент у себя из клиента (старые серии удалять не надо),
(3) скачать новый торрент и запустить его у себя в клиенте вместо старого, при этом указать клиенту путь в старую папку, куда и должно происходить скачивание новых серий.
Ваш клиент при этом должен произвести хеширование (проверку) старой папки (если не производит сам - помогите ему сделать это), и будет докачивать только те серии, которых у вас ещё нет. Старые серии при этом не удаляются, а продолжают раздаваться!
Eсли вы уже удалили старые серии, то предотвратить повторную закачку старых серий можно, отжав галочку в соответсвующих местах при запуске нового торрента. По возможности, желательно не удалять старые серии как можно дольше, чтобы релизёр не столько продолжал раздавать старые серии, а смог сконцентрироваться на новых.

piratbit.org



Скачать Криптид через торрент https://img11.lostpic.net/2020/10/13/f759a71e4f70000c1ef13feb027c6cdb.th.jpg Скачать фильм Криптид через торрент бесплантно в хорошем качестве Описание: После трагической и скоропостижной смерти матери, случившейся несколько лет назад, брат Никлас и сестра Лиса так и не смогли ... 10 10 3
Торрент: Зарегистрирован [2020-11-22 18:05] · скачан: 4 раз
Статус: √ проверено
Размер: 7.69 GB
Как cкачать? Как скачать Криптид через торрент | qTorrent

28-11-2019 20:33  

Отключить всю рекламу на сайте

    Дорогой пользователь! Огромная просьба, поблагодарите релизера, оцените раздачу и оставьте свои комментарий, если Вы скачали Криптид через торрент бесплатно! Внесите свою лепту в развитие PiratBit!
    Комментировать посты могут только пользователи прошедшие не сложную регистрацию
    Показать сообщения:    

    Криптид через торрент
    Скачать бесплатно Криптид
    Криптид скачать торрент
    Криптид смотреть онлайн
    Cкачать фильм Криптид бесплатно
    Криптид скачать торрент в хорошем качестве
    Криптид смотреть онлайн бесплатно в хорошем качестве


    Вы не можете начинать темы
    Вы не можете отвечать на сообщения
    Вы не можете редактировать свои сообщения
    Вы не можете удалять свои сообщения
    Вы не можете голосовать в опросах
    Вы не можете прикреплять файлы к сообщениям
    Вы можете скачивать файлы