Ссылка на приватное зеркало нашего сайта всего за 1$. Внимание количество ограничено!!!

2 сезон

iTunes

1 сезон

1

2 сезон

2 сезон

iTunes

1 сезон

RePack

30

Ultimate

ВАЖНО

ИГРА 18+

pack

RePack

MK11
pack

Забери бонус

RePack

jed

!!Акция!!

Alien_Rage

RePack

fifa19

RePack

Assassins Creed: Odyssey

RePack

NEED FOR SPEED™ PAYBACK

4 сезон

9 сезон

Бесстыжие 9 сезон

Все сериалы

все сериалы на PB.wtf

RePack

FAR CRY 5
  

Губка Боб в бегах / The SpongeBob Movie: Sponge on the Run (Тим Хилл) [2020, мультфильм, комедия, приключения, семейный, WEB-DL 1080p] DUB (rus, ukr) [SDI Media / Netflix] piratbit.org

Губка Боб в бегах через торрент piratbit.org

Раздают: 34 [ 565 KB/s ]
Размер: 6.59 GB | Добавлен: 26 д. назад | Торрент скачан:353 раза
Скачать  

05-11-2020 08:40 Губка Боб в бегах Скачать торрент  

Губка Боб в бегах | The SpongeBob Movie: Sponge on the Run
Год выпуска: 2020
Страна: Южная Корея, США
Выпущено: Nickelodeon Animation Studios, Nickelodeon Movies, Paramount Animation, Paramount Players, United Plankton Pictures
Жанр: мультфильм, комедия, приключения, семейный
Продолжительность: 01:35:23
Перевод: Дублированный | SDI Media по заказу Netflix
Субтитры: Русские (Forced, full), украинские (Forced, full), английские

Режиссер: Тим Хилл

rating

В ролях: Том Кенни, Билл Фагербакки, Роджер Бампасс, Клэнси Браун, Мистер Лоуренс, Киану Ривз, Аквафина, Лори Алан, Снуп Догг, Мэри Джо Кэтлетт, Джим Мескимен, Регги Уоттс, Джилл Тэлли, Кэролин Лоуренс, Антонио Рауль Корбо

Описание: Губка Боб и Патрик вынуждены отправиться в опасное путешествие, чтобы найти пропавшего питомца Гэри. Поиски похищенной улитки приводят друзей в манящий и обманчивый затерянный город Атлантик-Сити — обитель развлечений и порока. Но в конечном итоге любые неприятности помогут преодолеть сила дружбы.

Качество: WEB-DL 1080p
Формат: MKV

Видео: MPEG-4 AVC, 1920x1080, 7500 Kbit/s, 23.976 fps
Аудио #01: 48 kHz, E-AC3, 5.1, 640 Kbps | Дублированный | RUS |
Аудио #02: 48 kHz, AC3, 5.1, 640 Kbps | Дублированный | RUS |
Аудио #03: 48 kHz, E-AC3, 5.1, 640 Kbps | Дублированный | UKR |
Аудио #04: 48 kHz, E-AC3+Atmos, 5.1, 768 Kbps | Оригинал | ENG |
скриншот  скриншот  скриншот  скриншот  скриншот  

General
Unique ID : 181101465285873124927511687750362903741 (0x883EDF9D79EB68A037FBC397CDE8B4BD)
Complete name : D:Video111The.SpongeBob.Movie.Sponge.on.the.Run.2020.NF.WEB-DL.1080p.seleZen.mkv
Format : Matroska
Format version : Version 4
File size : 6.59 GiB
Duration : 1 h 35 min
Overall bit rate mode : Variable
Overall bit rate : 9 895 kb/s
Movie name : The SpongeBob Movie: Sponge on the Run 2020 from seleZen
Encoded date : UTC 2020-11-05 10:19:35
Writing application : mkvmerge v40.0.0 ('Old Town Road + Pony') 64-bit
Writing library : libebml v1.3.9 + libmatroska v1.5.2

Video
ID : 1
Format : AVC
Format/Info : Advanced Video Codec
Format profile : Main@L4
Format settings : CABAC / 3 Ref Frames
Format settings, CABAC : Yes
Format settings, Reference : 3 frames
Codec ID : V_MPEG4/ISO/AVC
Duration : 1 h 35 min
Bit rate mode : Variable
Bit rate : 7 500 kb/s
Maximum bit rate : 11.2 Mb/s
Width : 1 920 pixels
Height : 1 080 pixels
Display aspect ratio : 16:9
Frame rate mode : Constant
Frame rate : 23.976 (24000/1001) FPS
Color space : YUV
Chroma subsampling : 4:2:0
Bit depth : 8 bits
Scan type : Progressive
Bits/(Pixel*Frame) : 0.151
Stream size : 4.80 GiB (73%)
Writing library : x264 core 148 r2722 1b0121b
Encoding settings : cabac=1 / ref=3 / deblock=1:0:0 / analyse=0x1:0x111 / me=umh / subme=10 / psy=1 / psy_rd=1.00:0.00 / mixed_ref=1 / me_range=24 / chroma_me=1 / trellis=2 / 8x8dct=0 / cqm=0 / deadzone=21,11 / fast_pskip=1 / chroma_qp_offset=-2 / threads=8 / lookahead_threads=1 / sliced_threads=0 / nr=0 / decimate=1 / interlaced=0 / bluray_compat=0 / stitchable=1 / constrained_intra=0 / bframes=2 / b_pyramid=0 / b_adapt=2 / b_bias=0 / direct=3 / weightb=1 / open_gop=0 / weightp=2 / keyint=250 / keyint_min=23 / scenecut=0 / intra_refresh=0 / rc_lookahead=48 / rc=2pass / mbtree=1 / bitrate=7500 / ratetol=1.0 / qcomp=0.50 / qpmin=6 / qpmax=51 / qpstep=4 / cplxblur=20.0 / qblur=0.5 / vbv_maxrate=11250 / vbv_bufsize=15000 / nal_hrd=vbr / filler=0 / ip_ratio=1.40 / aq=1:1.00
Language : English
Default : Yes
Forced : No

Audio #1
ID : 2
Format : E-AC-3
Format/Info : Enhanced AC-3
Commercial name : Dolby Digital Plus
Codec ID : A_EAC3
Duration : 1 h 35 min
Bit rate mode : Constant
Bit rate : 640 kb/s
Channel(s) : 6 channels
Channel layout : L R C LFE Ls Rs
Sampling rate : 48.0 kHz
Frame rate : 31.250 FPS (1536 SPF)
Compression mode : Lossy
Stream size : 437 MiB (6%)
Title : Dub
Language : Russian
Service kind : Complete Main
Default : Yes
Forced : Yes

Audio #2
ID : 3
Format : AC-3
Format/Info : Audio Coding 3
Commercial name : Dolby Digital
Codec ID : A_AC3
Duration : 1 h 35 min
Bit rate mode : Constant
Bit rate : 640 kb/s
Channel(s) : 6 channels
Channel layout : L R C LFE Ls Rs
Sampling rate : 48.0 kHz
Frame rate : 31.250 FPS (1536 SPF)
Compression mode : Lossy
Stream size : 437 MiB (6%)
Title : Dub
Language : Rundi
Service kind : Complete Main
Default : No
Forced : No

Audio #3
ID : 4
Format : E-AC-3
Format/Info : Enhanced AC-3
Commercial name : Dolby Digital Plus
Codec ID : A_EAC3
Duration : 1 h 35 min
Bit rate mode : Constant
Bit rate : 640 kb/s
Channel(s) : 6 channels
Channel layout : L R C LFE Ls Rs
Sampling rate : 48.0 kHz
Frame rate : 31.250 FPS (1536 SPF)
Compression mode : Lossy
Stream size : 437 MiB (6%)
Title : Dub
Language : Ukrainian
Service kind : Complete Main
Default : No
Forced : No

Audio #4
ID : 5
Format : E-AC-3 JOC
Format/Info : Enhanced AC-3 with Joint Object Coding
Commercial name : Dolby Digital Plus with Dolby Atmos
Codec ID : A_EAC3
Duration : 1 h 35 min
Bit rate mode : Constant
Bit rate : 768 kb/s
Channel(s) : 6 channels
Channel layout : L R C LFE Ls Rs
Sampling rate : 48.0 kHz
Frame rate : 31.250 FPS (1536 SPF)
Compression mode : Lossy
Stream size : 524 MiB (8%)
Title : Original
Language : English
Service kind : Complete Main
Default : No
Forced : No
Complexity index : 16
Number of dynamic objects : 15
Bed channel count : 1 channel
Bed channel configuration : LFE

Text #1
ID : 6
Format : UTF-8
Codec ID : S_TEXT/UTF8
Codec ID/Info : UTF-8 Plain Text
Duration : 1 h 30 min
Bit rate : 3 b/s
Count of elements : 51
Stream size : 2.39 KiB (0%)
Title : Forced
Language : Russian
Default : Yes
Forced : Yes

Text #2
ID : 7
Format : UTF-8
Codec ID : S_TEXT/UTF8
Codec ID/Info : UTF-8 Plain Text
Duration : 1 h 30 min
Bit rate : 97 b/s
Count of elements : 1343
Stream size : 65.2 KiB (0%)
Title : Full
Language : Russian
Default : No
Forced : No

Text #3
ID : 8
Format : UTF-8
Codec ID : S_TEXT/UTF8
Codec ID/Info : UTF-8 Plain Text
Duration : 1 h 30 min
Bit rate : 3 b/s
Count of elements : 52
Stream size : 2.41 KiB (0%)
Title : Forced
Language : Ukrainian
Default : No
Forced : No

Text #4
ID : 9
Format : UTF-8
Codec ID : S_TEXT/UTF8
Codec ID/Info : UTF-8 Plain Text
Duration : 1 h 30 min
Bit rate : 98 b/s
Count of elements : 1342
Stream size : 65.5 KiB (0%)
Title : Full
Language : Ukrainian
Default : No
Forced : No

Text #5
ID : 10
Format : UTF-8
Codec ID : S_TEXT/UTF8
Codec ID/Info : UTF-8 Plain Text
Duration : 1 h 29 min
Bit rate : 72 b/s
Count of elements : 1665
Stream size : 47.7 KiB (0%)
Title : SDH
Language : English
Default : No
Forced : No


piratbit.org



Скачать Губка Боб в бегах через торрент https://d.radikal.ru/d19/2011/49/2cea4235013d.jpg Скачать фильм Губка Боб в бегах через торрент бесплантно в хорошем качестве Описание: Губка Боб и Патрик вынуждены отправиться в опасное путешествие, чтобы найти пропавшего питомца Гэри. Поиски похищенной улитки ... 9.4 10 15
Info! Золотая раздача, скачанное не засчитывается.
Торрент: Зарегистрирован [2020-11-05 12:13] · скачан: 353 раз
Статус: √ проверено
Размер: 6.59 GB
Как cкачать? Как скачать Губка Боб в бегах через торрент | qTorrent

% Раздел Тема Автор DL S | L
Иностранные мультфильмы [ 1.46 GB ] Губка Боб в бегах / The SpongeBob Movie: Sponge on the Run [2020 мультфильм WEB-DLRip] - [SDI Media / Netflix] Twi7ter Скачать
177 | 5
Ultra HD (UHD: 2K, 4K, 8K) [ 11.14 GB ] Губка Боб в бегах / The SpongeBob Movie: Sponge on the Run [2020 мультфильм UHD WEB-DL 2160p] DUB [SDI Media / Netflix] bober100 Скачать
7 | 1
Иностранные мультфильмы [ 1.46 GB ] Губка Боб в бегах / The SpongeBob Movie: Sponge on the Run [2020 мультфильм WEB-DLRip] DUB [SDI Media / Netflix] bober100 Скачать
18 | 0
Зарубежные Мультфильмы (WEB-DL 720p, 1080p) [ 4.63 GB ] Губка Боб в бегах / The SpongeBob Movie: Sponge on the Run [2020 мультфильм WEB-DL 720p] DUB [SDI Media / Netflix] bober100 Скачать
18 | 0

28-11-2019 20:33  

Отключить всю рекламу на сайте

28-11-2020 17:42 Губка Боб в бегах Скачать торрент  

Лучшее что вышло после 9-го сезона. piratbit.org



    Дорогой пользователь! Огромная просьба, поблагодарите релизера, оцените раздачу и оставьте свои комментарий, если Вы скачали Губка Боб в бегах через торрент бесплатно! Внесите свою лепту в развитие PiratBit!
    Комментировать посты могут только пользователи прошедшие не сложную регистрацию
    Показать сообщения:    

    Губка Боб в бегах через торрент
    Скачать бесплатно Губка Боб в бегах
    Губка Боб в бегах скачать торрент
    Губка Боб в бегах смотреть онлайн
    Cкачать фильм Губка Боб в бегах бесплатно
    Губка Боб в бегах скачать торрент в хорошем качестве
    Губка Боб в бегах смотреть онлайн бесплатно в хорошем качестве


    Вы не можете начинать темы
    Вы не можете отвечать на сообщения
    Вы не можете редактировать свои сообщения
    Вы не можете удалять свои сообщения
    Вы не можете голосовать в опросах
    Вы не можете прикреплять файлы к сообщениям
    Вы можете скачивать файлы