Лицензия

MVO

1

1 сезон

Лицензия

Лицензия

13

MVO

1 сезон

Deluxe Edition

pack

Рекомендуем

30

Repack

ВАЖНО

ВАЖНО

Ghostwire

RePack

jed

RePack

fifa19

RePack

RDR2

RePack

NEED FOR SPEED™ PAYBACK

RePack

Кинопоиск HD

 Острые козырьки 6 сезон

6 сезон

FAR CRY 6

RePack

Лицензия

MVO

1

1 сезон

1 сезон

Лицензия

  

Балкон (Калыкбек Салыков) [1988 г., драма, DVDRip-AVC]

Балкон через торрент piratbit.org

Раздают: 1 [ 0 KB/s ]
Размер: 1.46 GB | Добавлен: 1 год 10 мес. назад | Торрент скачан:27 раз
Смотреть онлайн Балкон | Скачать   

06-11-2020 15:05 Балкон Скачать торрент  

Балкон

Год выпуска: 1988
Страна: СССР | киностудия "Казахфильм" им. Шакена Айманова, ТО "Алем"
Жанр: драма
Продолжительность: 01:19:39
Перевод: не требуется

Режиссер: Калыкбек Салыков

В ролях: Исмаил Игильманов, Юрий Горошевский, Куаныш Сарсенбеков, Анвар Чужегулов, Зибагуль Карина, Валентин Никулин, Анатолий Равикович, Треу Аханбаев, Валентин Черных, Владимир Толоконников, Ольга Сошникова, Лидия Каденова, Райхан Айткожанова.

Описание: По мотивам поэзии Олжаса Сулейманова. Фильм колоритно воссоздает Алма-Ату начала 50-х годов. Через историю жизни подростка просвечивает биография молодого поколения 50-х. Пережив сиротство, по-своему отстаивая право быть личностью, Айдар сталкивается с жестокостью и равнодушием, приспособленчеством и трусостью, порожденными культом личности, а так же благородством и добротой окружающих людей.

rating

Файл
Формат: MKV
Кодек: x264
Качество: DVDRip-AVC (DVD5)
Видео: MPEG-4 AVC, 700x572@746x572, 25.000 fps, 2421 kbps, 0.242 bit/pixel
Аудио #1: Русский, AC3, 2 chnls, 192 kbps
Аудио #2: Казахский, AC3, 2 chnls, 192 kbps | Отдельно
x264 [info]: frame I:732 Avg QP:15.69 size: 54024
x264 [info]: frame P:23673 Avg QP:17.25 size: 26326
x264 [info]: frame B:95091 Avg QP:18.03 size: 8241
x264 [info]: consecutive B-frames: 1.3% 1.9% 5.6% 10.8% 19.5% 46.6% 9.5% 2.6% 0.7% 1.2% 0.1%
Format : Matroska
Format version : Version 4
File size : 1.46 GiB
Duration : 1 h 19 min
Overall bit rate : 2 618 kb/s
Movie name : Балкон (1988) - Rip by -{am}-
Encoded date : UTC 2020-09-18 16:04:33
Writing application : mkvmerge v7.2.0 ('On Every Street') 32bit built on Sep 13 2014 15:42:11
Writing library : libebml v1.3.0 + libmatroska v1.4.1
Attachments : poster.png

Video
ID : 1
Format : AVC
Format/Info : Advanced Video Codec
Format profile : High@L4.1
Format settings : CABAC / 16 Ref Frames
Format settings, CABAC : Yes
Format settings, Reference : 16 frames
Codec ID : V_MPEG4/ISO/AVC
Duration : 1 h 19 min
Bit rate : 2 421 kb/s
Width : 700 pixels
Height : 572 pixels
Display aspect ratio : 4:3
Original display aspect rat : 4:3
Frame rate mode : Constant
Frame rate : 25.000 FPS
Color space : YUV
Chroma subsampling : 4:2:0
Bit depth : 8 bits
Scan type : Progressive
Bits/(Pixel*Frame) : 0.242
Stream size : 1.35 GiB (92%)
Title : Balkon.1988.{am}.746.Rus
Writing library : x264 core 161 r3018+53 18a1d6c t_mod_New [(8 & 10)-bit@all X86_64]
Encoding settings : cabac=1 / ref=16 / deblock=1:-2:-2 / analyse=0x3:0x113 / me=umh / subme=11 / psy=1 / fade_compensate=0.00 / psy_rd=1.00:0.20 / mixed_ref=1 / me_range=64 / chroma_me=1 / trellis=2 / 8x8dct=1 / cqm=2 / deadzone=21,11 / fast_pskip=0 / chroma_qp_offset=-5 / threads=18 / lookahead_threads=4 / sliced_threads=0 / nr=0 / decimate=0 / interlaced=0 / bluray_compat=0 / constrained_intra=0 / fgo=0 / bframes=10 / b_pyramid=2 / b_adapt=2 / b_bias=0 / direct=3 / weightb=1 / open_gop=0 / weightp=2 / keyint=250 / keyint_min=25 / scenecut=40 / intra_refresh=0 / rc_lookahead=40 / rc=crf / mbtree=0 / crf=18.0000 / qcomp=0.60 / qpmin=0:0:0 / qpmax=30:30:30 / qpstep=4 / vbv_maxrate=50000 / vbv_bufsize=62500 / crf_max=30.0 / nal_hrd=none / filler=0 / ip_ratio=1.40 / pb_ratio=1.30 / aq=3:1.00 / aq-sensitivity=10.00 / aq-factor=1.00:1.00:1.00 / aq2=0 / aq3=0
Language : Kazakh
Default : Yes
Forced : No

Audio
ID : 2
Format : AC-3
Format/Info : Audio Coding 3
Commercial name : Dolby Digital
Codec ID : A_AC3
Duration : 1 h 19 min
Bit rate mode : Constant
Bit rate : 192 kb/s
Channel(s) : 2 channels
Channel layout : L R
Sampling rate : 48.0 kHz
Frame rate : 31.250 FPS (1536 SPF)
Compression mode : Lossy
Stream size : 109 MiB (7%)
Title : DUB
Language : Russian
Service kind : Complete Main
Default : Yes
Forced : No

Menu
00:00:00.000 : :Глава 1
00:04:27.320 : :Глава 2
00:10:50.800 : :Глава 3
00:15:45.800 : :Глава 4
00:30:06.880 : :Глава 5
00:32:29.560 : :Глава 6
00:43:40.440 : :Глава 7
00:49:30.000 : :Глава 8
01:08:34.440 : :Глава 9
скриншот  скриншот  скриншот  

скриншот  скриншот  скриншот  

скриншот  скриншот  скриншот  



Скачать Балкон через торрент https://img11.lostpic.net/2020/11/04/3849339b754e029f86c1c85e9a39601c.th.png Скачать, смотреть онлайн Балкон бесплантно в хорошем качестве Описание: По мотивам поэзии Олжаса Сулейманова. Фильм колоритно воссоздает Алма-Ату начала 50-х годов. Через историю жизни подростка ... 10 10 1
Торрент: Зарегистрирован [2020-11-06 15:05] · скачан: 27 раз
Статус: √ проверено
Размер: 1.46 GB
Как cкачать? Как скачать Балкон через торрент | UTorrent

28-11-2019 20:33  

Отключить вcю реклaмy на сайте

    Дорогой пользователь! Огромная просьба, поблагодарите релизера, оцените раздачу и оставьте свои комментарий, если Вы скачали Балкон через торрент бесплатно!!
    Комментировать посты могут только пользователи прошедшие не сложную регистрацию
    Показать сообщения:    


    Балкон через торрент
    Скачать бесплатно Балкон
    Балкон скачать торрент
    Балкон смотреть онлайн
    Cкачать фильм Балкон бесплатно
    Балкон скачать торрент в хорошем качестве
    Балкон смотреть онлайн бесплатно в хорошем качестве
    Вы не можете начинать темы
    Вы не можете отвечать на сообщения
    Вы не можете редактировать свои сообщения
    Вы не можете удалять свои сообщения
    Вы не можете голосовать в опросах
    Вы не можете прикреплять файлы к сообщениям
    Вы можете скачивать файлы