1 сезон

1 сезон

iTunes

1

КиноПоиск HD

Кинопоиск HD

iTunes

13

1 сезон

RePack

30

Новинка

ВАЖНО

ИГРА 18+

pack

RePack

MK11
pack

Легкие деньги

RePack

jed

RePack

fifa19

RePack

RDR2

RePack

NEED FOR SPEED™ PAYBACK

4 сезон

9 сезон

Бесстыжие 9 сезон

Все сериалы

все сериалы на PB.wtf

RePack

FAR CRY 5
  
Magnet ссылка

Метод / Сезон: 2 / Серии: 1-16 из 16 (Александр Войтинский) [2020, Триллер, детектив, драма, SATRip] piratbit.org

Метод через торрент piratbit.org

Раздают: 3 [ 8 KB/s ] Качают: 3 [ 0 KB/s ]
Размер: 10.34 GB | Добавлен: 25 д. назад | Торрент скачан:43 раза
Скачать  

08-11-2020 11:34 Метод Скачать торрент  

Метод 2
Год выпуска: 2020
Страна: Россия
Производство: Кинокомпания "Среда"
Жанр: Триллер, детектив
Продолжительность: ~ 00:45:00
Перевод: Не требуется
Субтитры: отсутствуют

Режиссер: Александр Войтинский

rating

В ролях: Константин Хабенский, Паулина Андреева, Александр Петров (III), Виталий Кищенко, Евгения Симонова, Никита Тарасов, Сергей Гармаш, Макар Запорожский, Егор Корешков, Сергей Сосновский, Анна Глаубэ, Сергей Ракша, Пётр Нестеров, Наталья Земцова, Руслан Щедрин, Дмитрий Радонов, Анастасия Привалова, Николай Ширяев, Полина Лунегова, Алёна Фалалеева, Владимир Андриянов, Кирилл Полухин, Сергей Гурьев, Елена Николаева (II), Сергей Лобанов, Светлана Устинова, Даниил Воробьёв, Роман Маякин, Юлия Хлынина, Александр Наумов, Артур Сопельник, Павел Чинарёв, Вильма Кутавичюте, Энтони Бэшоу

Описание: После смерти Меглина прошел год, но Есеня не может забыть о том, что произошло. Не может и не хочет. Призраки прошлого снова и снова возвращают её в тот день, когда она потеряла Меглина. Есеня пытается начать жить заново — рядом с ней муж, подрастает дочь, но всё, о чем она мечтает — это поскорее вернуться к работе. Такой шанс представляется, когда в городе происходит череда таинственных убийств. Есеня возвращается на службу и в первый же день снова теряет близкого человека, своего друга и напарника. Чтобы найти убийцу, ей необходим метод. Чтобы найти метод, ей необходимо воскресить в памяти все то, чему её учил Меглин. Поиски приводят Есеню к разгадке тайн прошлого. Героине, которая еще не успела оправиться от одного кошмара, приходится столкнуться с новым. Но что, если это её убьёт?

Качество: SATRip
Формат: AVI

Видео: XviD, 720x400, ~ 1600 Кбит/с, 0.219 bit/pixel, 25 Кадр/с
Аудио: МР3, 48,0 КГц, 2 ch, 192 Кбит/с
скриншот  скриншот  скриншот  

Общее
Полное имя : C:\Metod.S02.XviD.SATRip.25Kuzmich\Metod.s02.s01.XviD.SATRip.25Kuzmich.avi
Формат : AVI
Формат/Информация : Audio Video Interleave
Размер файла : 608 Мбайт
Продолжительность : 45 м. 57 с.
Общий поток : 1850 Кбит/сек
Программа кодирования : VirtualDubMod 1.5.10.3 | www.virtualdub-fr.org || (build 2550/release)
Библиотека кодирования : VirtualDubMod build 2550/release

Видео
Идентификатор : 0
Формат : MPEG-4 Visual
Профиль формата : Advanced Simple@L5
Настройки формата : BVOP1
Параметр BVOP формата : 1
Параметр QPel формата : Нет
Параметр GMC формата : Без точки перехода
Параметр матрицы формата : Default (MPEG)
Идентификатор кодека : XVID
Идентификатор кодека/Подсказка : XviD
Продолжительность : 45 м. 57 с.
Битрейт : 1576 Кбит/сек
Ширина : 720 пикселей
Высота : 400 пикселей
Соотношение сторон : 16:9
Частота кадров : 25,000 кадров/сек
Цветовое пространство : YUV
Субдискретизация насыщенности : 4:2:0
Битовая глубина : 8 бит
Тип развёртки : Прогрессивная
Метод сжатия : С потерями
Бит/(Пиксели*Кадры) : 0.219
Размер потока : 518 Мбайт (85%)
Библиотека кодирования : XviD 73

Аудио
Идентификатор : 1
Формат : MPEG Audio
Версия формата : Version 1
Профиль формата : Layer 3
Настройки формата : Joint stereo / MS Stereo
Идентификатор кодека : 55
Идентификатор кодека/Подсказка : MP3
Продолжительность : 45 м. 57 с.
Вид битрейта : Постоянный
Битрейт : 192 Кбит/сек
Каналы : 2 канала
Частота : 48,0 КГц
Частота кадров : 41,667 кадра/сек (1152 SPF)
Метод сжатия : С потерями
Размер потока : 63,1 Мбайт (10%)
Выравнивание : Соединение по промежуткам
Библиотека кодирования : LAME3.99r
Настройки программы : -m j -V 4 -q 2 -lowpass 18.6 -b 192

Когда раздача ведётся путём добавления новых серий, при каждом добавлении создётся новый торрент. Чтобы начать докачку новой серии, пользователям необходимо сделать следующее:
(1) остановить скачивание,
(2) удалить старый торрент у себя из клиента (старые серии удалять не надо),
(3) скачать новый торрент и запустить его у себя в клиенте вместо старого, при этом указать клиенту путь в старую папку, куда и должно происходить скачивание новых серий.
Ваш клиент при этом должен произвести хеширование (проверку) старой папки (если не производит сам - помогите ему сделать это), и будет докачивать только те серии, которых у вас ещё нет. Старые серии при этом не удаляются, а продолжают раздаваться!
Eсли вы уже удалили старые серии, то предотвратить повторную закачку старых серий можно, отжав галочку в соответсвующих местах при запуске нового торрента. По возможности, желательно не удалять старые серии как можно дольше, чтобы релизёр не столько продолжал раздавать старые серии, а смог сконцентрироваться на новых.

piratbit.org



Скачать Метод через торрент https://img11.lostpic.net/2020/11/08/3fee5468361ba824f1c423260adcd6c6.jpg Скачать фильм Метод через торрент бесплантно в хорошем качестве Описание: После смерти Меглина прошел год, но Есеня не может забыть о том, что произошло. Не может и не хочет. Призраки прошлого снова и ... 9.8 10 31
Торрент: Зарегистрирован [2021-03-28 18:15] · скачан: 43 раз
Статус: √ проверено
Размер: 10.34 GB
Как cкачать? Как скачать Метод через торрент | UTorrent

% Раздел Тема Автор DL S | L
Наши сериалы [ 29.89 GB ] Метод / Сезон: 2 / Серии: 1-16 из 16 [2020 WEB-DL 1080p ] bober100 Скачать
9 | 2
Наши сериалы [ 20.32 GB ] Метод / Сезон: 2 / Серии: 1-16 из 16 [2020 HDTVRip 720p] bober100 Скачать
3 | 1
Наши сериалы [ 11.93 GB ] Метод / Сезон: 2 / Серии: 1-16 из 16 [2020 HDTVRip-AVC] bober100 Скачать
3 | 1
Наши сериалы [ 28.63 GB ] Метод / Сезон: 2 / Серии: 1-16 из 16 [2020 HDTV 1080i] bober100 Скачать
1 | 1
Наши сериалы [ 9.91 GB ] Метод / Сезон: 2 / Серии: 1-16 из 16 [2020 HDTVRip] bober100 Скачать
5 | 2


Последний раз редактировалось: bober100 (2021-03-28 18:15), всего редактировалось 17 раз(а)

28-11-2019 20:33  

Отключить всю рекламу на сайте

08-11-2020 11:50 Метод Скачать торрент  

Ух ты, приятная неожиданность !
Ждал второй сезон, как мамку с магазина !!
Жалко, что только восемь серий !!! piratbit.org



08-11-2020 13:21 Метод Скачать торрент  

Спасибо за оперативность, очень сильно ждал!!!piratbit.org



08-11-2020 14:41 Метод Скачать торрент  

благодарю.Как всегда раз в неделю выходят?piratbit.org



29-11-2020 16:15 Метод Скачать торрент  

чет не ахтиpiratbit.org



20-12-2020 19:49 Метод Скачать торрент  

спасибо за оперативность за 8 серию, второй сезон в несколько раз хуже первого, оно и понятно Быков тут уже не занимался в создании сериала, но тем не менее, сериал все равно хорошpiratbit.org



24-01-2021 17:25 Метод Скачать торрент  

Чтооо?piratbit.org



    Дорогой пользователь! Огромная просьба, поблагодарите релизера, оцените раздачу и оставьте свои комментарий, если Вы скачали Метод через торрент бесплатно! Внесите свою лепту в развитие PiratBit!
    Комментировать посты могут только пользователи прошедшие не сложную регистрацию
    Показать сообщения:    

    Метод через торрент
    Скачать бесплатно Метод
    Метод скачать торрент
    Метод смотреть онлайн
    Cкачать фильм Метод бесплатно
    Метод скачать торрент в хорошем качестве
    Метод смотреть онлайн бесплатно в хорошем качестве


    Вы не можете начинать темы
    Вы не можете отвечать на сообщения
    Вы не можете редактировать свои сообщения
    Вы не можете удалять свои сообщения
    Вы не можете голосовать в опросах
    Вы не можете прикреплять файлы к сообщениям
    Вы можете скачивать файлы