2 сезон

iTunes

WEBRip

1

2 сезон

iTunes

1 сезон

1 сезон

RePack

30

Новинка

ВАЖНО

ИГРА 18+

pack

RePack

MK11
pack

Легкие деньги

RePack

jed

RePack

fifa19

RePack

RDR2

RePack

NEED FOR SPEED™ PAYBACK

4 сезон

9 сезон

Бесстыжие 9 сезон

Все сериалы

все сериалы на PB.wtf

RePack

FAR CRY 5

Anonymous, доброй ночи, мы не успеваем собрать деньги на оплату серверов за февраль, помогите нам пожалуйста в это трудное время. В качестве благодарности мы отключим Вам всю рекламу на сайте (укажите свой ник в строку Ваше имя)!

×
  
Magnet ссылка

Метод / Сезон: 2 / Серии: 1-13 из 16 (Александр Войтинский) [2020, Триллер, детектив, драма, HDTVRip 720p] piratbit.org

Метод через торрент piratbit.org

Качают: 4 [ 0 KB/s ]
Размер: 16.42 GB | Добавлен: 3 д. назад | Торрент скачан:7 раз
Скачать  

08-11-2020 17:28 Метод Скачать торрент  

Метод 2
Год выпуска: 2020
Страна: Россия
Производство: Кинокомпания "Среда"
Жанр: Триллер, детектив
Продолжительность: ~ 00:45:00
Перевод: Не требуется
Субтитры: отсутствуют

Режиссер: Александр Войтинский

rating

В ролях: Константин Хабенский, Паулина Андреева, Александр Петров (III), Виталий Кищенко, Евгения Симонова, Никита Тарасов, Сергей Гармаш, Макар Запорожский, Егор Корешков, Сергей Сосновский, Анна Глаубэ, Сергей Ракша, Пётр Нестеров, Наталья Земцова, Руслан Щедрин, Дмитрий Радонов, Анастасия Привалова, Николай Ширяев, Полина Лунегова, Алёна Фалалеева, Владимир Андриянов, Кирилл Полухин, Сергей Гурьев, Елена Николаева (II), Сергей Лобанов, Светлана Устинова, Даниил Воробьёв, Роман Маякин, Юлия Хлынина, Александр Наумов, Артур Сопельник, Павел Чинарёв, Вильма Кутавичюте, Энтони Бэшоу

Описание: После смерти Меглина прошел год, но Есеня не может забыть о том, что произошло. Не может и не хочет. Призраки прошлого снова и снова возвращают её в тот день, когда она потеряла Меглина. Есеня пытается начать жить заново — рядом с ней муж, подрастает дочь, но всё, о чем она мечтает — это поскорее вернуться к работе. Такой шанс представляется, когда в городе происходит череда таинственных убийств. Есеня возвращается на службу и в первый же день снова теряет близкого человека, своего друга и напарника. Чтобы найти убийцу, ей необходим метод. Чтобы найти метод, ей необходимо воскресить в памяти все то, чему её учил Меглин. Поиски приводят Есеню к разгадке тайн прошлого. Героине, которая еще не успела оправиться от одного кошмара, приходится столкнуться с новым. Но что, если это её убьёт?

Качество: HDTVRip 720p
Формат: MKV

Видео: MPEG-4 AVC, ~ 3500 Кбит/с, 1280x720, 25 fps
Аудио: 48.0 kHz, AC3 Dolby Digital, 2/0 (L,R) ch, ~ 192 kbps
скриншот  скриншот  скриншот  скриншот  

Общее
Уникальный идентификатор : 181702614397026606724872285931536703321 (0x88B2A68DFCFB0DCBAB827410EB60DF59)
Полное имя : D:Metod.S02.HDTVRip.(720p).GeneralFilm1.Metod.S02.HDTVRip.(720p).GeneralFilm.mkv
Формат : Matroska
Версия формата : Version 2
Размер файла : 1,19 Гбайт
Продолжительность : 45 м.
Общий поток : 3693 Кбит/сек
Дата кодирования : UTC 2020-11-08 17:14:03
Программа кодирования : mkvmerge v7.8.0 ('River Man') 32bit built on Apr 3 2015 12:11:22
Библиотека кодирования : libebml v1.3.1 + libmatroska v1.4.2

Видео
Идентификатор : 1
Формат : AVC
Формат/Информация : Advanced Video Codec
Профиль формата : High@L4.1
Параметр CABAC формата : Да
Параметр ReFrames формата : 9 кадров
Идентификатор кодека : V_MPEG4/ISO/AVC
Продолжительность : 45 м.
Битрейт : 3500 Кбит/сек
Ширина : 1280 пикселей
Высота : 720 пикселей
Соотношение сторон : 16:9
Режим частоты кадров : Постоянный
Частота кадров : 25,000 кадров/сек
Цветовое пространство : YUV
Субдискретизация насыщенности : 4:2:0
Битовая глубина : 8 бит
Тип развёртки : Прогрессивная
Бит/(Пиксели*Кадры) : 0.152
Размер потока : 1,10 Гбайт (93%)
Библиотека кодирования : x264 core 146 r2538 121396c
Настройки программы : cabac=1 / ref=9 / deblock=1:-2:-1 / analyse=0x3:0x133 / me=umh / subme=9 / psy=1 / psy_rd=1.00:0.15 / mixed_ref=1 / me_range=32 / chroma_me=1 / trellis=2 / 8x8dct=1 / cqm=0 / deadzone=21,11 / fast_pskip=0 / chroma_qp_offset=-3 / threads=18 / lookahead_threads=3 / sliced_threads=0 / nr=0 / decimate=1 / interlaced=0 / bluray_compat=0 / constrained_intra=0 / bframes=9 / b_pyramid=2 / b_adapt=2 / b_bias=0 / direct=1 / weightb=1 / open_gop=0 / weightp=2 / keyint=250 / keyint_min=25 / scenecut=40 / intra_refresh=0 / rc=2pass / mbtree=0 / bitrate=3500 / ratetol=1.0 / qcomp=0.60 / qpmin=0 / qpmax=69 / qpstep=4 / cplxblur=20.0 / qblur=0.5 / ip_ratio=1.40 / pb_ratio=1.30 / aq=2:1.00
Default : Да
Forced : Нет
Основные цвета : BT.709
Характеристики трансфера : BT.709
Коэффициенты матрицы : BT.709

Аудио
Идентификатор : 2
Формат : AC-3
Формат/Информация : Audio Coding 3
Расширение режима : CM (complete main)
Параметр Endianness формата : Big
Идентификатор кодека : A_AC3
Продолжительность : 45 м.
Вид битрейта : Постоянный
Битрейт : 192 Кбит/сек
Каналы : 2 канала
Расположение каналов : Front: L R
Частота : 48,0 КГц
Битовая глубина : 16 бит
Метод сжатия : С потерями
Размер потока : 63,2 Мбайт (5%)
Default : Да
Forced : Нет

Когда раздача ведётся путём добавления новых серий, при каждом добавлении создётся новый торрент. Чтобы начать докачку новой серии, пользователям необходимо сделать следующее:
(1) остановить скачивание,
(2) удалить старый торрент у себя из клиента (старые серии удалять не надо),
(3) скачать новый торрент и запустить его у себя в клиенте вместо старого, при этом указать клиенту путь в старую папку, куда и должно происходить скачивание новых серий.
Ваш клиент при этом должен произвести хеширование (проверку) старой папки (если не производит сам - помогите ему сделать это), и будет докачивать только те серии, которых у вас ещё нет. Старые серии при этом не удаляются, а продолжают раздаваться!
Eсли вы уже удалили старые серии, то предотвратить повторную закачку старых серий можно, отжав галочку в соответсвующих местах при запуске нового торрента. По возможности, желательно не удалять старые серии как можно дольше, чтобы релизёр не столько продолжал раздавать старые серии, а смог сконцентрироваться на новых.

piratbit.org



Скачать Метод через торрент http://c.radikal.ru/c26/2011/10/5e3e10487a76.jpg Скачать фильм Метод через торрент бесплантно в хорошем качестве Описание: После смерти Меглина прошел год, но Есеня не может забыть о том, что произошло. Не может и не хочет. Призраки прошлого снова и ... 8.8 10 12
Info! Золотая раздача, скачанное не засчитывается.
Торрент: Зарегистрирован [2021-02-22 02:27] · скачан: 7 раз
Статус: √ проверено
Размер: 16.42 GB
Как cкачать? Как скачать Метод через торрент | UTorrent

% Раздел Тема Автор DL S | L
Наши сериалы [ 24.15 GB ] Метод / Сезон: 2 / Серии: 1-13 из 16 [2020 WEB-DL 1080p ] bober100 Скачать
4 | 10
Наши сериалы [ 8.36 GB ] Метод / Сезон: 2 / Серии: 1-13 из 16 [2020 SATRip] bober100 Скачать
4 | 4
Наши сериалы [ 9.61 GB ] Метод / Сезон: 2 / Серии: 1-13 из 16 [2020 HDTVRip-AVC] bober100 Скачать
2 | 2
Наши сериалы [ 23.67 GB ] Метод / Сезон: 2 / Серии: 1-13 из 16 [2020 HDTV 1080i] bober100 Скачать
2 | 6
Наши сериалы [ 8.01 GB ] Метод / Сезон: 2 / Серии: 1-13 из 16 [2020 HDTVRip] bober100 Скачать
3 | 1

28-11-2019 20:33  

Отключить всю рекламу на сайте

24-02-2021 19:07 Метод Скачать торрент  

Переиграно конечно, опасного психа почти проткнувшего нос медбрату отпускают на следующий день... Ниверю... Но смотреть можно.piratbit.org



    Дорогой пользователь! Огромная просьба, поблагодарите релизера, оцените раздачу и оставьте свои комментарий, если Вы скачали Метод через торрент бесплатно! Внесите свою лепту в развитие PiratBit!
    Комментировать посты могут только пользователи прошедшие не сложную регистрацию
    Показать сообщения:    

    Метод через торрент
    Скачать бесплатно Метод
    Метод скачать торрент
    Метод смотреть онлайн
    Cкачать фильм Метод бесплатно
    Метод скачать торрент в хорошем качестве
    Метод смотреть онлайн бесплатно в хорошем качестве


    Вы не можете начинать темы
    Вы не можете отвечать на сообщения
    Вы не можете редактировать свои сообщения
    Вы не можете удалять свои сообщения
    Вы не можете голосовать в опросах
    Вы не можете прикреплять файлы к сообщениям
    Вы можете скачивать файлы